SHARE
TWEET

Untitled

seleZennet Dec 11th, 2019 85 Never
Not a member of Pastebin yet? Sign Up, it unlocks many cool features!
  1. General
  2. Unique ID                   : 154499113247163821098406203013019187853 (0x743B72654FE08FEA524ABA6BA01BBA8D)
  3. Complete name               : F:\Video111\The.Professor.2018.BDRip.720p.seleZen.mkv
  4. Format                      : Matroska
  5. Format version              : Version 4
  6. File size                   : 4.62 GiB
  7. Duration                    : 1 h 31 min
  8. Overall bit rate            : 7 216 kb/s
  9. Movie name                  : The Professor 2018 from селезень
  10. Encoded date                : UTC 2019-12-11 20:07:00
  11. Writing application         : mkvmerge v40.0.0 ('Old Town Road + Pony') 64-bit
  12. Writing library             : libebml v1.3.9 + libmatroska v1.5.2
  13.  
  14. Video
  15. ID                          : 1
  16. Format                      : AVC
  17. Format/Info                 : Advanced Video Codec
  18. Format profile              : High@L4.1
  19. Format settings             : CABAC / 9 Ref Frames
  20. Format settings, CABAC      : Yes
  21. Format settings, Reference  : 9 frames
  22. Codec ID                    : V_MPEG4/ISO/AVC
  23. Duration                    : 1 h 31 min
  24. Bit rate                    : 6 000 kb/s
  25. Width                       : 1 280 pixels
  26. Height                      : 692 pixels
  27. Display aspect ratio        : 1.85:1
  28. Frame rate mode             : Constant
  29. Frame rate                  : 23.976 (24000/1001) FPS
  30. Color space                 : YUV
  31. Chroma subsampling          : 4:2:0
  32. Bit depth                   : 8 bits
  33. Scan type                   : Progressive
  34. Bits/(Pixel*Frame)          : 0.283
  35. Stream size                 : 3.84 GiB (83%)
  36. Title                       : Encoded by seleZen
  37. Writing library             : x264 core 148 r2705kMod 3f5ed56
  38. Encoding settings           : cabac=1 / ref=9 / deblock=1:-2:-2 / analyse=0x3:0x113 / me=umh / subme=11 / psy=1 / fade_compensate=0.00 / psy_rd=0.96:0.00 / mixed_ref=1 / me_range=32 / chroma_me=1 / trellis=2 / 8x8dct=1 / cqm=0 / deadzone=21,11 / fast_pskip=0 / chroma_qp_offset=-2 / threads=22 / lookahead_threads=5 / sliced_threads=0 / nr=0 / decimate=0 / interlaced=0 / bluray_compat=0 / constrained_intra=0 / fgo=0 / bframes=10 / b_pyramid=2 / b_adapt=2 / b_bias=0 / direct=3 / weightb=1 / open_gop=0 / weightp=2 / keyint=240 / keyint_min=23 / scenecut=40 / intra_refresh=0 / rc_lookahead=50 / rc=2pass / mbtree=0 / bitrate=6000 / ratetol=1.0 / qcomp=0.60 / qpmin=0 / qpmax=51 / qpstep=4 / cplxblur=20.0 / qblur=0.5 / vbv_maxrate=50000 / vbv_bufsize=62500 / nal_hrd=none / filler=0 / ip_ratio=1.40 / pb_ratio=1.30 / aq=3:0.80
  39. Language                    : English
  40. Default                     : Yes
  41. Forced                      : No
  42.  
  43. Audio #1
  44. ID                          : 2
  45. Format                      : AC-3
  46. Format/Info                 : Audio Coding 3
  47. Commercial name             : Dolby Digital
  48. Codec ID                    : A_AC3
  49. Duration                    : 1 h 31 min
  50. Bit rate mode               : Constant
  51. Bit rate                    : 384 kb/s
  52. Channel(s)                  : 6 channels
  53. Channel layout              : L R C LFE Ls Rs
  54. Sampling rate               : 48.0 kHz
  55. Frame rate                  : 31.250 FPS (1536 SPF)
  56. Bit depth                   : 16 bits
  57. Compression mode            : Lossy
  58. Stream size                 : 252 MiB (5%)
  59. Title                       : Dub [iTunes]
  60. Language                    : Russian
  61. Service kind                : Complete Main
  62. Default                     : Yes
  63. Forced                      : Yes
  64.  
  65. Audio #2
  66. ID                          : 3
  67. Format                      : AC-3
  68. Format/Info                 : Audio Coding 3
  69. Commercial name             : Dolby Digital
  70. Codec ID                    : A_AC3
  71. Duration                    : 1 h 31 min
  72. Bit rate mode               : Constant
  73. Bit rate                    : 192 kb/s
  74. Channel(s)                  : 2 channels
  75. Channel layout              : L R
  76. Sampling rate               : 48.0 kHz
  77. Frame rate                  : 31.250 FPS (1536 SPF)
  78. Bit depth                   : 16 bits
  79. Compression mode            : Lossy
  80. Stream size                 : 126 MiB (3%)
  81. Title                       : MVO [HDRezka Studio]
  82. Language                    : Russian
  83. Service kind                : Complete Main
  84. Default                     : No
  85. Forced                      : No
  86.  
  87. Audio #3
  88. ID                          : 4
  89. Format                      : AC-3
  90. Format/Info                 : Audio Coding 3
  91. Commercial name             : Dolby Digital
  92. Codec ID                    : A_AC3
  93. Duration                    : 1 h 31 min
  94. Bit rate mode               : Constant
  95. Bit rate                    : 640 kb/s
  96. Channel(s)                  : 6 channels
  97. Channel layout              : L R C LFE Ls Rs
  98. Sampling rate               : 48.0 kHz
  99. Frame rate                  : 31.250 FPS (1536 SPF)
  100. Bit depth                   : 16 bits
  101. Compression mode            : Lossy
  102. Stream size                 : 419 MiB (9%)
  103. Title                       : Original
  104. Language                    : English
  105. Service kind                : Complete Main
  106. Default                     : No
  107. Forced                      : No
  108.  
  109. Text #1
  110. ID                          : 5
  111. Format                      : UTF-8
  112. Codec ID                    : S_TEXT/UTF8
  113. Codec ID/Info               : UTF-8 Plain Text
  114. Duration                    : 1 h 26 min
  115. Bit rate                    : 95 b/s
  116. Count of elements           : 1367
  117. Stream size                 : 60.3 KiB (0%)
  118. Title                       : Full
  119. Language                    : Russian
  120. Default                     : No
  121. Forced                      : No
  122.  
  123. Text #2
  124. ID                          : 6
  125. Format                      : UTF-8
  126. Codec ID                    : S_TEXT/UTF8
  127. Codec ID/Info               : UTF-8 Plain Text
  128. Duration                    : 1 h 27 min
  129. Bit rate                    : 63 b/s
  130. Count of elements           : 1417
  131. Stream size                 : 40.7 KiB (0%)
  132. Title                       : Full
  133. Language                    : English
  134. Default                     : No
  135. Forced                      : No
  136.  
  137. Menu
  138. 00:00:00.000                : :Глава 01
  139. 00:05:26.993                : :Глава 02
  140. 00:09:19.100                : :Глава 03
  141. 00:14:21.110                : :Глава 04
  142. 00:23:02.130                : :Глава 05
  143. 00:29:52.791                : :Глава 06
  144. 00:34:16.471                : :Глава 07
  145. 00:40:27.883                : :Глава 08
  146. 00:45:19.925                : :Глава 09
  147. 00:51:29.211                : :Глава 10
  148. 00:54:27.931                : :Глава 11
  149. 00:57:48.256                : :Глава 12
  150. 01:02:55.897                : :Глава 13
  151. 01:09:05.349                : :Глава 14
  152. 01:16:59.239                : :Глава 15
  153. 01:23:55.655                : :Глава 16
RAW Paste Data
We use cookies for various purposes including analytics. By continuing to use Pastebin, you agree to our use of cookies as described in the Cookies Policy. OK, I Understand
 
Top