Guest User

[Vivid-Asenshi] Violet Evergarden - 03v2 [219DC125].mkv

a guest
Jan 31st, 2018
64
Never
Not a member of Pastebin yet? Sign Up, it unlocks many cool features!
  1. General
  2. Unique ID : 188557377824833279502487693648825074689 (0x8DDAD47C1CAA44E8A9AB2177E8E6C401)
  3. Format : Matroska
  4. Format version : Version 4 / Version 2
  5. File size : 562 MiB
  6. Duration : 23 min 41 s
  7. Overall bit rate : 3 313 kb/s
  8. Encoded date : UTC 2018-01-25 19:54:46
  9. Writing application : mkvmerge v18.0.0 ('Apricity') 64-bit
  10. Writing library : libebml v1.3.5 + libmatroska v1.4.8
  11. Attachments : IwaOMinPro-Bd-Fate.ttf / justs.ttf / Cabin-Bold.otf / Cabin-BoldItalic.otf / IwaMinPro-Md-Kami.ttf
  12.  
  13. Video
  14. ID : 1
  15. Format : AVC
  16. Format/Info : Advanced Video Codec
  17. Format profile : High 10@L5.1
  18. Format settings, CABAC : Yes
  19. Format settings, ReFrames : 16 frames
  20. Codec ID : V_MPEG4/ISO/AVC
  21. Duration : 23 min 39 s
  22. Bit rate : 3 048 kb/s
  23. Width : 1 920 pixels
  24. Height : 1 080 pixels
  25. Display aspect ratio : 16:9
  26. Frame rate mode : Constant
  27. Frame rate : 23.976 (24000/1001) FPS
  28. Color space : YUV
  29. Chroma subsampling : 4:2:0
  30. Bit depth : 10 bits
  31. Scan type : Progressive
  32. Bits/(Pixel*Frame) : 0.061
  33. Stream size : 516 MiB (92%)
  34. Writing library : x264 core 155 r2867+74 66b5600 t_mod_Custom_2 [10-bit@all X86_64]
  35. Encoding settings : cabac=1 / ref=16 / deblock=1:0:0 / analyse=0x3:0x133 / me=umh / subme=10 / psy=1 / fade_compensate=0.80 / psy_rd=0.85:0.00 / mixed_ref=1 / me_range=24 / chroma_me=1 / trellis=2 / 8x8dct=1 / cqm=0 / deadzone=21,11 / fast_pskip=1 / chroma_qp_offset=-2 / threads=12 / lookahead_threads=3 / sliced_threads=0 / nr=0 / decimate=1 / interlaced=0 / bluray_compat=0 / constrained_intra=0 / fgo=0 / bframes=16 / b_pyramid=2 / b_adapt=2 / b_bias=0 / direct=3 / weightb=1 / open_gop=0 / weightp=2 / keyint=250 / keyint_min=23 / scenecut=40 / intra_refresh=0 / rc_lookahead=60 / rc=crf / mbtree=1 / crf=16.3000 / qcomp=0.65 / qpmin=0:0:0 / qpmax=81:81:81 / qpstep=4 / ip_ratio=1.40 / aq=3:0.80 / aq-sensitivity=10.00 / aq-factor=1.00:1.00:1.00 / aq2=0 / aq3=0
  36. Language : English
  37. Default : Yes
  38. Forced : No
  39. Color range : Limited
  40. Matrix coefficients : BT.709
  41.  
  42. Audio
  43. ID : 2
  44. Format : AAC
  45. Format/Info : Advanced Audio Codec
  46. Format profile : LC
  47. Codec ID : A_AAC
  48. Duration : 23 min 39 s
  49. Bit rate : 252 kb/s
  50. Channel(s) : 2 channels
  51. Channel positions : Front: L R
  52. Sampling rate : 48.0 kHz
  53. Frame rate : 46.875 FPS (1024 spf)
  54. Compression mode : Lossy
  55. Stream size : 42.7 MiB (8%)
  56. Language : Japanese
  57. Default : Yes
  58. Forced : No
  59.  
  60. Text
  61. ID : 3
  62. Format : ASS
  63. Codec ID : S_TEXT/ASS
  64. Codec ID/Info : Advanced Sub Station Alpha
  65. Duration : 23 min 13 s
  66. Bit rate : 7 740 b/s
  67. Count of elements : 1918
  68. Compression mode : Lossless
  69. Stream size : 1.29 MiB (0%)
  70. Language : English
  71. Default : Yes
  72. Forced : No
  73.  
  74. Menu
  75. 00:00:00.000 : :Intro
  76. 00:02:00.954 : :OP
  77. 00:03:30.961 : :Part A
  78. 00:11:51.961 : :Part B
  79. 00:22:09.912 : :ED
RAW Paste Data