Henry_Kr

SWCW-S03

Dec 7th, 2019
331
Never
Not a member of Pastebin yet? Sign Up, it unlocks many cool features!
  1. Video
  2. ID : 1
  3. Format : AVC
  4. Format/Info : Advanced Video Codec
  5. Format profile : High@L4.1
  6. Format settings : CABAC / 5 Ref Frames
  7. Format settings, CABAC : Yes
  8. Format settings, Reference : 5 frames
  9. Muxing mode : Header stripping
  10. Codec ID : V_MPEG4/ISO/AVC
  11. Duration : 23 min 20 s
  12. Bit rate : 7 227 kb/s
  13. Nominal bit rate : 7 719 kb/s
  14. Width : 1 920 pixels
  15. Height : 816 pixels
  16. Display aspect ratio : 2.35:1
  17. Frame rate mode : Constant
  18. Frame rate : 23.976 (24000/1001) FPS
  19. Color space : YUV
  20. Chroma subsampling : 4:2:0
  21. Bit depth : 8 bits
  22. Scan type : Progressive
  23. Bits/(Pixel*Frame) : 0.192
  24. Stream size : 1.18 GiB (76%)
  25. Title : Star.Wars.The.Clone.Wars.S03E01.Soldados.Perfeitos.REPACK.1080p.BluRay.[CartoonNOW]
  26. Language : English
  27. Default : Yes
  28. Forced : No
  29.  
  30. Audio #1
  31. ID : 2
  32. Format : E-AC-3
  33. Format/Info : Enhanced AC-3
  34. Commercial name : Dolby Digital Plus
  35. Muxing mode : Header stripping
  36. Codec ID : A_EAC3
  37. Duration : 23 min 20 s
  38. Bit rate mode : Constant
  39. Bit rate : 640 kb/s
  40. Channel(s) : 6 channels
  41. Channel layout : L R C LFE Ls Rs
  42. Sampling rate : 48.0 kHz
  43. Frame rate : 31.250 FPS (1536 SPF)
  44. Compression mode : Lossy
  45. Delay relative to video : 900 ms
  46. Stream size : 107 MiB (7%)
  47. Title : E-AC3 5.1
  48. Language : Portuguese
  49. Service kind : Complete Main
  50. Default : Yes
  51. Forced : No
  52.  
  53. Audio #2
  54. ID : 3
  55. Format : DTS
  56. Format/Info : Digital Theater Systems
  57. Muxing mode : Header stripping
  58. Codec ID : A_DTS
  59. Duration : 23 min 20 s
  60. Bit rate mode : Constant
  61. Bit rate : 1 509 kb/s
  62. Channel(s) : 6 channels
  63. Channel layout : C L R Ls Rs LFE
  64. Sampling rate : 48.0 kHz
  65. Frame rate : 93.750 FPS (512 SPF)
  66. Bit depth : 24 bits
  67. Compression mode : Lossy
  68. Stream size : 252 MiB (16%)
  69. Title : DTS 5.1
  70. Language : English
  71. Default : No
  72. Forced : No
  73.  
  74. Text
  75. ID : 4
  76. Format : UTF-8
  77. Codec ID : S_TEXT/UTF8
  78. Codec ID/Info : UTF-8 Plain Text
  79. Title : Completa
  80. Language : Portuguese
  81. Default : No
  82. Forced : No
RAW Paste Data