Interfilm

Untitled

Nov 9th, 2014
194
Never
Not a member of Pastebin yet? Sign Up, it unlocks many cool features!
  1. General
  2. Obsessed.2014.Blu.Ray.1080p.CINEMANIA.mkv
  3. Format : Matroska
  4. Format version : Version 4 / Version 2
  5. File size : 11.1 GiB
  6. Duration : 2h 12mn
  7. Overall bit rate : 11.9 Mbps
  8. Movie name : Release Group CINEMANIA
  9. Encoded date : UTC 2014-11-05 23:37:53
  10. Writing application : mkvmerge v7.3.0 ('Nouages') 64bit built on Oct 22 2014 18:53:34
  11. Writing library : libebml v1.3.0 + libmatroska v1.4.1
  12.  
  13. Video
  14. ID : 1
  15. Format : AVC
  16. Format/Info : Advanced Video Codec
  17. Format profile : High@L4.1
  18. Format settings, CABAC : Yes
  19. Format settings, ReFrames : 4 frames
  20. Codec ID : V_MPEG4/ISO/AVC
  21. Duration : 2h 12mn
  22. Bit rate : 10.2 Mbps
  23. Width : 1 916 pixels
  24. Height : 1 038 pixels
  25. Display aspect ratio : 1.85:1
  26. Frame rate mode : Constant
  27. Frame rate : 23.976 fps
  28. Color space : YUV
  29. Chroma subsampling : 4:2:0
  30. Bit depth : 8 bits
  31. Scan type : Progressive
  32. Bits/(Pixel*Frame) : 0.214
  33. Stream size : 9.26 GiB (84%)
  34. Title : Release Group CINEMANIA
  35. Writing library : x264 core 142 r2431 ac76440
  36. Encoding settings : cabac=1 / ref=4 / deblock=1:-3:-3 / analyse=0x3:0x113 / me=umh / subme=10 / psy=1 / psy_rd=1.00:0.05 / mixed_ref=1 / me_range=32 / chroma_me=1 / trellis=2 / 8x8dct=1 / cqm=0 / deadzone=21,11 / fast_pskip=0 / chroma_qp_offset=-2 / threads=18 / lookahead_threads=1 / sliced_threads=0 / nr=0 / decimate=1 / interlaced=0 / bluray_compat=0 / constrained_intra=0 / bframes=5 / b_pyramid=2 / b_adapt=2 / b_bias=0 / direct=3 / weightb=1 / open_gop=0 / weightp=2 / keyint=250 / keyint_min=23 / scenecut=40 / intra_refresh=0 / rc=2pass / mbtree=0 / bitrate=10222 / ratetol=1.0 / qcomp=0.70 / qpmin=0 / qpmax=69 / qpstep=4 / cplxblur=20.0 / qblur=0.5 / ip_ratio=1.40 / pb_ratio=1.30 / aq=2:0.90
  37. Language : English
  38. Default : Yes
  39. Forced : No
  40.  
  41. Audio #1
  42. ID : 2
  43. Format : AC-3
  44. Format/Info : Audio Coding 3
  45. Mode extension : CM (complete main)
  46. Format settings, Endianness : Big
  47. Codec ID : A_AC3
  48. Duration : 2h 12mn
  49. Bit rate mode : Constant
  50. Bit rate : 192 Kbps
  51. Channel(s) : 2 channels
  52. Channel positions : Front: L R
  53. Sampling rate : 48.0 KHz
  54. Bit depth : 16 bits
  55. Compression mode : Lossy
  56. Stream size : 182 MiB (2%)
  57. Title : Green Tea
  58. Language : Russian
  59. Default : Yes
  60. Forced : Yes
  61.  
  62. Audio #2
  63. ID : 3
  64. Format : DTS
  65. Format/Info : Digital Theater Systems
  66. Mode : 16
  67. Format settings, Endianness : Big
  68. Codec ID : A_DTS
  69. Duration : 2h 12mn
  70. Bit rate mode : Constant
  71. Bit rate : 1 509 Kbps
  72. Channel(s) : 6 channels
  73. Channel positions : Front: L C R, Side: L R, LFE
  74. Sampling rate : 48.0 KHz
  75. Bit depth : 24 bits
  76. Compression mode : Lossy
  77. Stream size : 1.40 GiB (13%)
  78. Language : Korean
  79. Default : No
  80. Forced : No
  81.  
  82. Text #2
  83. ID : 5
  84. Format : UTF-8
  85. Codec ID : S_TEXT/UTF8
  86. Codec ID/Info : UTF-8 Plain Text
  87. Language : English
  88. Default : No
  89. Forced : No
RAW Paste Data