SHARE
TWEET

Untitled

seleZennet Jan 19th, 2020 86 Never
Not a member of Pastebin yet? Sign Up, it unlocks many cool features!
  1. General
  2. Unique ID                   : 128381267135138799266603756586416683547 (0x60955529B0B9FE0A324A6E1245733A1B)
  3. Complete name               : E:\Video111\The.Collini.Case.2019.BDRip.1080p.seleZen.mkv
  4. Format                      : Matroska
  5. Format version              : Version 4
  6. File size                   : 10.1 GiB
  7. Duration                    : 2 h 2 min
  8. Overall bit rate            : 11.8 Mb/s
  9. Movie name                  : The Collini Case 2019 from селезень
  10. Encoded date                : UTC 2020-01-20 00:33:23
  11. Writing application         : mkvmerge v40.0.0 ('Old Town Road + Pony') 64-bit
  12. Writing library             : libebml v1.3.9 + libmatroska v1.5.2
  13.  
  14. Video
  15. ID                          : 1
  16. Format                      : AVC
  17. Format/Info                 : Advanced Video Codec
  18. Format profile              : High@L4.1
  19. Format settings             : CABAC / 5 Ref Frames
  20. Format settings, CABAC      : Yes
  21. Format settings, Reference  : 5 frames
  22. Codec ID                    : V_MPEG4/ISO/AVC
  23. Duration                    : 2 h 2 min
  24. Bit rate                    : 10.8 Mb/s
  25. Width                       : 1 920 pixels
  26. Height                      : 804 pixels
  27. Display aspect ratio        : 2.40:1
  28. Frame rate mode             : Constant
  29. Frame rate                  : 24.000 FPS
  30. Color space                 : YUV
  31. Chroma subsampling          : 4:2:0
  32. Bit depth                   : 8 bits
  33. Scan type                   : Progressive
  34. Bits/(Pixel*Frame)          : 0.291
  35. Stream size                 : 9.24 GiB (91%)
  36. Title                       : Encoded by seleZen
  37. Writing library             : x264 core 142 r2431+42 c69a006 tMod [8-bit@all X86_64]
  38. Encoding settings           : cabac=1 / ref=5 / deblock=1:-2:-2 / analyse=0x3:0x133 / me=umh / subme=10 / psy=1 / fade_compensate=0.00 / psy_rd=1.01:0.00 / mixed_ref=1 / me_range=32 / chroma_me=1 / trellis=2 / 8x8dct=1 / cqm=0 / deadzone=21,11 / fast_pskip=0 / chroma_qp_offset=-2 / threads=24 / lookahead_threads=4 / sliced_threads=0 / nr=0 / decimate=0 / interlaced=0 / bluray_compat=0 / constrained_intra=0 / fgo=0 / bframes=8 / b_pyramid=2 / b_adapt=2 / b_bias=0 / direct=3 / weightb=1 / open_gop=0 / weightp=2 / keyint=240 / keyint_min=24 / scenecut=40 / intra_refresh=0 / rc_lookahead=50 / rc=2pass / mbtree=0 / bitrate=10780 / ratetol=1.0 / qcomp=0.60 / qpmin=0:0:0 / qpmax=51:51:51 / qpstep=4 / cplxblur=20.0 / qblur=0.5 / vbv_maxrate=50000 / vbv_bufsize=62500 / nal_hrd=none / filler=0 / ip_ratio=1.40 / pb_ratio=1.30 / aq=3:0.80 / aq-sensitivity=10.00 / aq-factor=1.00:1.00:1.00 / aq2=0 / aq3=0
  39. Language                    : English
  40. Default                     : Yes
  41. Forced                      : No
  42.  
  43. Audio #1
  44. ID                          : 2
  45. Format                      : AC-3
  46. Format/Info                 : Audio Coding 3
  47. Commercial name             : Dolby Digital
  48. Codec ID                    : A_AC3
  49. Duration                    : 2 h 2 min
  50. Bit rate mode               : Constant
  51. Bit rate                    : 384 kb/s
  52. Channel(s)                  : 6 channels
  53. Channel layout              : L R C LFE Ls Rs
  54. Sampling rate               : 48.0 kHz
  55. Frame rate                  : 31.250 FPS (1536 SPF)
  56. Compression mode            : Lossy
  57. Stream size                 : 337 MiB (3%)
  58. Title                       : iTunes
  59. Language                    : Russian
  60. Service kind                : Complete Main
  61. Default                     : Yes
  62. Forced                      : Yes
  63.  
  64. Audio #2
  65. ID                          : 3
  66. Format                      : AC-3
  67. Format/Info                 : Audio Coding 3
  68. Commercial name             : Dolby Digital
  69. Codec ID                    : A_AC3
  70. Duration                    : 2 h 2 min
  71. Bit rate mode               : Constant
  72. Bit rate                    : 640 kb/s
  73. Channel(s)                  : 6 channels
  74. Channel layout              : L R C LFE Ls Rs
  75. Sampling rate               : 48.0 kHz
  76. Frame rate                  : 31.250 FPS (1536 SPF)
  77. Compression mode            : Lossy
  78. Stream size                 : 562 MiB (5%)
  79. Title                       : Original
  80. Language                    : German
  81. Service kind                : Complete Main
  82. Default                     : No
  83. Forced                      : No
  84.  
  85. Text #1
  86. ID                          : 4
  87. Format                      : UTF-8
  88. Codec ID                    : S_TEXT/UTF8
  89. Codec ID/Info               : UTF-8 Plain Text
  90. Duration                    : 1 h 56 min
  91. Bit rate                    : 72 b/s
  92. Count of elements           : 966
  93. Stream size                 : 61.4 KiB (0%)
  94. Title                       : Full [Enigma]
  95. Language                    : Russian
  96. Default                     : No
  97. Forced                      : No
  98.  
  99. Text #2
  100. ID                          : 5
  101. Format                      : UTF-8
  102. Codec ID                    : S_TEXT/UTF8
  103. Codec ID/Info               : UTF-8 Plain Text
  104. Duration                    : 1 h 54 min
  105. Bit rate                    : 42 b/s
  106. Count of elements           : 955
  107. Stream size                 : 35.4 KiB (0%)
  108. Language                    : English
  109. Default                     : No
  110. Forced                      : No
  111.  
  112. Menu
  113. 00:00:00.000                : en:00:00:00.000
  114. 00:05:11.250                : en:00:05:11.250
  115. 00:13:40.417                : en:00:13:40.417
  116. 00:20:14.917                : en:00:20:14.917
  117. 00:26:18.583                : en:00:26:18.583
  118. 00:33:56.875                : en:00:33:56.875
  119. 00:40:25.000                : en:00:40:25.000
  120. 00:48:11.583                : en:00:48:11.583
  121. 00:58:25.208                : en:00:58:25.208
  122. 01:05:15.792                : en:01:05:15.792
  123. 01:10:55.500                : en:01:10:55.500
  124. 01:20:01.458                : en:01:20:01.458
  125. 01:28:08.667                : en:01:28:08.667
  126. 01:35:51.208                : en:01:35:51.208
  127. 01:43:44.958                : en:01:43:44.958
  128. 01:50:53.292                : en:01:50:53.292
  129. 01:56:29.542                : en:01:56:29.542
  130. 00:10:00.000                : en:00:10:00.000
RAW Paste Data
We use cookies for various purposes including analytics. By continuing to use Pastebin, you agree to our use of cookies as described in the Cookies Policy. OK, I Understand
Top