moninil066

Untitled

Oct 5th, 2019
102
Never
Not a member of Pastebin yet? Sign Up, it unlocks many cool features!
  1. General
  2. Complete name                            :Bittersweet.Monday.2014.1080p.WEBRip.x264-RARBG.mp4
  3. Format                                   : MPEG-4
  4. Format profile                           : Base Media
  5. Codec ID                                 : isom (isom/iso2/avc1/mp41)
  6. File size                                : 1.66 GiB
  7. Duration                                 : 1 h 26 min
  8. Overall bit rate                         : 2 730 kb/s
  9. Movie name                               : Bittersweet.Monday.2014.1080p.WEBRip.x264-RARBG
  10. Encoded date                             : UTC 2019-09-05 02:33:13
  11. Tagged date                              : UTC 2019-09-05 02:33:13
  12. Writing application                      : Lavf58.20.100
  13. Comment                                  : Bittersweet.Monday.2014.1080p.WEBRip.x264-RARBG
  14.  
  15. Video
  16. ID                                       : 1
  17. Format                                   : AVC
  18. Format/Info                              : Advanced Video Codec
  19. Format profile                           : High@L4.1
  20. Format settings                          : CABAC / 4 Ref Frames
  21. Format settings, CABAC                   : Yes
  22. Format settings, Reference frames        : 4 frames
  23. Codec ID                                 : avc1
  24. Codec ID/Info                            : Advanced Video Coding
  25. Duration                                 : 1 h 26 min
  26. Bit rate                                 : 2 500 kb/s
  27. Width                                    : 1 920 pixels
  28. Height                                   : 816 pixels
  29. Display aspect ratio                     : 2.35:1
  30. Frame rate mode                          : Constant
  31. Frame rate                               : 23.976 (23976/1000) FPS
  32. Color space                              : YUV
  33. Chroma subsampling                       : 4:2:0
  34. Bit depth                                : 8 bits
  35. Scan type                                : Progressive
  36. Bits/(Pixel*Frame)                       : 0.067
  37. Stream size                              : 1.52 GiB (92%)
  38. Writing library                          : x264 core 152 r2851M ba24899
  39. Encoded date                             : UTC 2019-09-05 02:33:13
  40. Tagged date                              : UTC 2019-09-05 02:33:13
  41. Codec configuration box                  : avcC
  42.  
  43. Audio
  44. ID                                       : 2
  45. Format                                   : AAC LC
  46. Format/Info                              : Advanced Audio Codec Low Complexity
  47. Codec ID                                 : mp4a-40-2
  48. Duration                                 : 1 h 26 min
  49. Bit rate mode                            : Constant
  50. Bit rate                                 : 224 kb/s
  51. Channel(s)                               : 2 channels
  52. Channel layout                           : L R
  53. Sampling rate                            : 48.0 kHz
  54. Frame rate                               : 46.875 FPS (1024 SPF)
  55. Compression mode                         : Lossy
  56. Stream size                              : 139 MiB (8%)
  57. Language                                 : English
  58. Default                                  : Yes
  59. Alternate group                          : 1
  60. Encoded date                             : UTC 2019-09-05 02:33:13
  61. Tagged date                              : UTC 2019-09-05 02:33:13
RAW Paste Data