SHARE
TWEET

PrjA21987

SampaD22 May 22nd, 2019 87 Never
Not a member of Pastebin yet? Sign Up, it unlocks many cool features!
  1. Format                      : Matroska
  2. Format version              : Version 4
  3. File size                   : 5.49 GiB
  4. Duration                    : 1 h 46 min
  5. Overall bit rate            : 7 378 kb/s
  6. Movie name                  : Project A 2 (1987) [SD22]
  7. Encoded date                : UTC 2019-05-22 15:38:29
  8. Writing application         : mkvmerge v34.0.0 ('Sight and Seen') 64-bit
  9. Writing library             : libebml v1.3.7 + libmatroska v1.5.0
  10. Cover                       : Yes
  11. Attachments                 : cover.jpg
  12.  
  13. Video
  14. ID                          : 4
  15. Format                      : HEVC
  16. Format/Info                 : High Efficiency Video Coding
  17. Format profile              : Main 10@L4@High
  18. Codec ID                    : V_MPEGH/ISO/HEVC
  19. Duration                    : 1 h 46 min
  20. Bit rate                    : 6 441 kb/s
  21. Width                       : 1 920 pixels
  22. Height                      : 1 080 pixels
  23. Display aspect ratio        : 16:9
  24. Frame rate mode             : Constant
  25. Frame rate                  : 23.976 (24000/1001) FPS
  26. Color space                 : YUV
  27. Chroma subsampling          : 4:2:0
  28. Bit depth                   : 10 bits
  29. Bits/(Pixel*Frame)          : 0.130
  30. Stream size                 : 4.79 GiB (87%)
  31. Writing library             : x265 2.9+2-7e978ed93d60:[Windows][GCC 8.2.0][64 bit] 10bit
  32. Encoding settings           : cpuid=1049583 / frame-threads=3 / numa-pools=16,16 / wpp / no-pmode / no-pme / no-psnr / no-ssim / log-level=2 / csv / csv-log-level=0 / input-csp=1 / input-res=1920x1080 / interlace=0 / total-frames=153301 / level-idc=0 / high-tier=1 / uhd-bd=0 / ref=4 / no-allow-non-conformance / no-repeat-headers / annexb / no-aud / no-hrd / info / hash=0 / no-temporal-layers / open-gop / min-keyint=23 / keyint=250 / gop-lookahead=0 / bframes=8 / b-adapt=2 / b-pyramid / bframe-bias=0 / rc-lookahead=80 / lookahead-slices=4 / scenecut=40 / radl=0 / no-intra-refresh / ctu=64 / min-cu-size=8 / rect / no-amp / max-tu-size=32 / tu-inter-depth=1 / tu-intra-depth=1 / limit-tu=0 / rdoq-level=2 / dynamic-rd=0.00 / no-ssim-rd / signhide / no-tskip / nr-intra=0 / nr-inter=0 / no-constrained-intra / strong-intra-smoothing / max-merge=3 / limit-refs=3 / limit-modes / me=3 / subme=3 / merange=57 / temporal-mvp / no-weightp / no-weightb / no-analyze-src-pics / no-deblock / no-sao / no-sao-non-deblock / rd=4 / no-early-skip / rskip / no-fast-intra / no-tskip-fast / no-cu-lossless / no-b-intra / no-splitrd-skip / rdpenalty=0 / psy-rd=2.00 / psy-rdoq=1.00 / no-rd-refine / no-lossless / cbqpoffs=0 / crqpoffs=0 / rc=crf / crf=19.0 / qcomp=0.60 / qpstep=4 / stats-write=0 / stats-read=0 / vbv-maxrate=6500 / vbv-bufsize=13000 / vbv-init=0.9 / crf-max=0.0 / crf-min=0.0 / ipratio=1.40 / pbratio=1.30 / aq-mode=3 / aq-strength=1.00 / cutree / zone-count=0 / no-strict-cbr / qg-size=32 / no-rc-grain / qpmax=69 / qpmin=0 / no-const-vbv / sar=0 / overscan=0 / videoformat=5 / range=0 / colorprim=2 / transfer=2 / colormatrix=2 / chromaloc=0 / display-window=0 / max-cll=0,0 / min-luma=0 / max-luma=1023 / log2-max-poc-lsb=8 / vui-timing-info / vui-hrd-info / slices=1 / no-opt-qp-pps / no-opt-ref-list-length-pps / no-multi-pass-opt-rps / scenecut-bias=0.00 / no-opt-cu-delta-qp / aq-motion / no-hdr / no-hdr-opt / no-dhdr10-opt / no-idr-recovery-sei / analysis-reuse-level=5 / scale-factor=0 / refine-intra=0 / refine-inter=0 / refine-mv=0 / no-limit-sao / ctu-info=0 / no-lowpass-dct / refine-mv-type=0 / copy-pic=1 / max-ausize-factor=1.0 / no-dynamic-refine / no-single-sei
  33. Default                     : Yes
  34. Forced                      : No
  35. Color range                 : Limited
  36.  
  37. Audio #1
  38. ID                          : 1
  39. Format                      : AAC LC
  40. Format/Info                 : Advanced Audio Codec Low Complexity
  41. Codec ID                    : A_AAC-2
  42. Duration                    : 1 h 46 min
  43. Bit rate                    : 431 kb/s
  44. Channel(s)                  : 6 channels
  45. Channel layout              : C L R Ls Rs LFE
  46. Sampling rate               : 48.0 kHz
  47. Frame rate                  : 46.875 FPS (1024 SPF)
  48. Compression mode            : Lossy
  49. Delay relative to video     : 20 ms
  50. Stream size                 : 329 MiB (6%)
  51. Title                       : Cantonese 5.1 (Remixed)
  52. Language                    : Chinese
  53. Default                     : Yes
  54. Forced                      : No
  55.  
  56. Audio #2
  57. ID                          : 2
  58. Format                      : AAC LC
  59. Format/Info                 : Advanced Audio Codec Low Complexity
  60. Codec ID                    : A_AAC-2
  61. Duration                    : 1 h 46 min
  62. Bit rate                    : 399 kb/s
  63. Channel(s)                  : 6 channels
  64. Channel layout              : C L R Ls Rs LFE
  65. Sampling rate               : 48.0 kHz
  66. Frame rate                  : 46.875 FPS (1024 SPF)
  67. Compression mode            : Lossy
  68. Delay relative to video     : 20 ms
  69. Stream size                 : 304 MiB (5%)
  70. Title                       : English Dub 5.1 (Remixed)
  71. Language                    : English
  72. Default                     : No
  73. Forced                      : No
  74.  
  75. Audio #3
  76. ID                          : 3
  77. Format                      : AAC LC
  78. Format/Info                 : Advanced Audio Codec Low Complexity
  79. Codec ID                    : A_AAC-2
  80. Duration                    : 1 h 46 min
  81. Bit rate                    : 87.6 kb/s
  82. Channel(s)                  : 1 channel
  83. Channel layout              : C
  84. Sampling rate               : 48.0 kHz
  85. Frame rate                  : 46.875 FPS (1024 SPF)
  86. Compression mode            : Lossy
  87. Delay relative to video     : 20 ms
  88. Stream size                 : 66.8 MiB (1%)
  89. Title                       : Cantonese [Original] (Mono)
  90. Language                    : Chinese
  91. Default                     : No
  92. Forced                      : No
  93.  
  94. Text #1
  95. ID                          : 5
  96. Format                      : VobSub
  97. Muxing mode                 : zlib
  98. Codec ID                    : S_VOBSUB
  99. Codec ID/Info               : Picture based subtitle format used on DVDs
  100. Duration                    : 1 h 44 min
  101. Bit rate                    : 3 127 b/s
  102. Count of elements           : 1199
  103. Stream size                 : 2.34 MiB (0%)
  104. Title                       : English
  105. Language                    : English
  106. Default                     : Yes
  107. Forced                      : No
  108.  
  109. Text #2
  110. ID                          : 6
  111. Format                      : PGS
  112. Muxing mode                 : zlib
  113. Codec ID                    : S_HDMV/PGS
  114. Codec ID/Info               : Picture based subtitle format used on BDs/HD-DVDs
  115. Duration                    : 1 h 44 min
  116. Bit rate                    : 43.3 kb/s
  117. Count of elements           : 2394
  118. Stream size                 : 32.4 MiB (1%)
  119. Title                       : English
  120. Language                    : English
  121. Default                     : No
  122. Forced                      : No
  123.  
  124. Text #3
  125. ID                          : 7
  126. Format                      : VobSub
  127. Muxing mode                 : zlib
  128. Codec ID                    : S_VOBSUB
  129. Codec ID/Info               : Picture based subtitle format used on DVDs
  130. Duration                    : 1 h 44 min
  131. Bit rate                    : 3 127 b/s
  132. Count of elements           : 1199
  133. Stream size                 : 2.34 MiB (0%)
  134. Language                    : English
  135. Default                     : No
  136. Forced                      : No
  137.  
  138. Text #4
  139. ID                          : 8
  140. Format                      : UTF-8
  141. Codec ID                    : S_TEXT/UTF8
  142. Codec ID/Info               : UTF-8 Plain Text
  143. Duration                    : 1 h 41 min
  144. Bit rate                    : 59 b/s
  145. Count of elements           : 1428
  146. Stream size                 : 44.5 KiB (0%)
  147. Title                       : English (SRT)
  148. Language                    : English
  149. Default                     : No
  150. Forced                      : No
  151.  
  152. Menu
  153. 00:00:00.000                : en:Chapter 1
  154. 00:06:13.957                : en:Chapter 2
  155. 00:12:46.391                : en:Chapter 3
  156. 00:18:52.381                : en:Chapter 4
  157. 00:22:29.932                : en:Chapter 5
  158. 00:25:26.233                : en:Chapter 6
  159. 00:28:35.255                : en:Chapter 7
  160. 00:35:38.136                : en:Chapter 8
  161. 00:38:13.374                : en:Chapter 9
  162. 00:41:23.481                : en:Chapter 10
  163. 00:45:02.742                : en:Chapter 11
  164. 00:51:24.832                : en:Chapter 12
  165. 00:55:15.354                : en:Chapter 13
  166. 00:58:06.692                : en:Chapter 14
  167. 01:01:27.809                : en:Chapter 15
  168. 01:04:44.255                : en:Chapter 16
  169. 01:08:10.837                : en:Chapter 17
  170. 01:10:46.534                : en:Chapter 18
  171. 01:17:33.107                : en:Chapter 19
  172. 01:22:02.167                : en:Chapter 20
  173. 01:27:17.399                : en:Chapter 21
  174. 01:33:45.036                : en:Chapter 22
  175. 01:41:19.907                : en:Chapter 23
RAW Paste Data
We use cookies for various purposes including analytics. By continuing to use Pastebin, you agree to our use of cookies as described in the Cookies Policy. OK, I Understand
Not a member of Pastebin yet?
Sign Up, it unlocks many cool features!
 
Top