SHARE
TWEET

Untitled

seleZennet Oct 13th, 2019 118 Never
Not a member of Pastebin yet? Sign Up, it unlocks many cool features!
  1. General
  2. Unique ID                   : 57878639272146872983223304487932760341 (0x2B8B053C4E962C9B9E426EE3CBF79115)
  3. Complete name               : D:\Video111\Divino.Amor.2019.WEB-DL.1080p.seleZen.mkv
  4. Format                      : Matroska
  5. Format version              : Version 4
  6. File size                   : 4.87 GiB
  7. Duration                    : 1 h 39 min
  8. Overall bit rate            : 6 981 kb/s
  9. Movie name                  : Divino Amor 2019 from селезень
  10. Encoded date                : UTC 2019-10-13 20:56:03
  11. Writing application         : mkvmerge v22.0.0 ('At The End Of The World') 64-bit
  12. Writing library             : libebml v1.3.5 + libmatroska v1.4.8
  13.  
  14. Video
  15. ID                          : 1
  16. Format                      : AVC
  17. Format/Info                 : Advanced Video Codec
  18. Format profile              : High@L4
  19. Format settings             : CABAC / 2 Ref Frames
  20. Format settings, CABAC      : Yes
  21. Format settings, Reference  : 2 frames
  22. Codec ID                    : V_MPEG4/ISO/AVC
  23. Duration                    : 1 h 39 min
  24. Bit rate                    : 6 211 kb/s
  25. Width                       : 1 920 pixels
  26. Height                      : 1 080 pixels
  27. Display aspect ratio        : 16:9
  28. Frame rate mode             : Constant
  29. Frame rate                  : 24.000 FPS
  30. Color space                 : YUV
  31. Chroma subsampling          : 4:2:0
  32. Bit depth                   : 8 bits
  33. Scan type                   : Progressive
  34. Bits/(Pixel*Frame)          : 0.125
  35. Stream size                 : 4.33 GiB (89%)
  36. Language                    : Portuguese
  37. Default                     : Yes
  38. Forced                      : No
  39. Color range                 : Limited
  40. Color primaries             : BT.709
  41. Transfer characteristics    : BT.709
  42. Matrix coefficients         : BT.709
  43.  
  44. Audio #1
  45. ID                          : 2
  46. Format                      : AC-3
  47. Format/Info                 : Audio Coding 3
  48. Commercial name             : Dolby Digital
  49. Codec ID                    : A_AC3
  50. Duration                    : 1 h 39 min
  51. Bit rate mode               : Constant
  52. Bit rate                    : 384 kb/s
  53. Channel(s)                  : 6 channels
  54. Channel layout              : L R C LFE Ls Rs
  55. Sampling rate               : 48.0 kHz
  56. Frame rate                  : 31.250 FPS (1536 SPF)
  57. Bit depth                   : 16 bits
  58. Compression mode            : Lossy
  59. Stream size                 : 274 MiB (6%)
  60. Title                       : iTunes
  61. Language                    : Russian
  62. Service kind                : Complete Main
  63. Default                     : Yes
  64. Forced                      : Yes
  65.  
  66. Audio #2
  67. ID                          : 3
  68. Format                      : AC-3
  69. Format/Info                 : Audio Coding 3
  70. Commercial name             : Dolby Digital
  71. Codec ID                    : A_AC3
  72. Duration                    : 1 h 39 min
  73. Bit rate mode               : Constant
  74. Bit rate                    : 384 kb/s
  75. Channel(s)                  : 6 channels
  76. Channel layout              : L R C LFE Ls Rs
  77. Sampling rate               : 48.0 kHz
  78. Frame rate                  : 31.250 FPS (1536 SPF)
  79. Bit depth                   : 16 bits
  80. Compression mode            : Lossy
  81. Stream size                 : 274 MiB (6%)
  82. Title                       : Original
  83. Language                    : Portuguese
  84. Service kind                : Complete Main
  85. Default                     : No
  86. Forced                      : No
  87.  
  88. Menu
  89. 00:00:00.000                : en:00:00:00.000
  90. 00:07:57.560                : en:00:07:57.560
  91. 00:15:34.225                : en:00:15:34.225
  92. 00:24:02.066                : en:00:24:02.066
  93. 00:32:57.017                : en:00:32:57.017
  94. 00:43:00.411                : en:00:43:00.411
  95. 00:52:29.688                : en:00:52:29.688
  96. 01:02:07.599                : en:01:02:07.599
  97. 01:06:14.179                : en:01:06:14.179
  98. 01:15:05.334                : en:01:15:05.334
  99. 01:21:45.025                : en:01:21:45.025
  100. 01:30:22.250                : en:01:30:22.250
  101. 01:39:58.618                : en:01:39:58.618
RAW Paste Data
We use cookies for various purposes including analytics. By continuing to use Pastebin, you agree to our use of cookies as described in the Cookies Policy. OK, I Understand
Not a member of Pastebin yet?
Sign Up, it unlocks many cool features!
 
Top