G2A Many GEOs
SHARE
TWEET

Untitled

a guest Dec 31st, 2019 119 Never
Not a member of Pastebin yet? Sign Up, it unlocks many cool features!
  1. Общее
  2. Уникальный идентификатор : 196149055665837853791090952459104898663 (0x9390EF19C5D5ADF89CE7AFBC66814E67)
  3. Полное имя : D:\Раздача\Perspektiva.2018.BDRemux 1080p. grab777.mkv
  4. Формат : Matroska
  5. Версия формата : Version 4 / Version 2
  6. Размер файла : 18,0 Гбайт
  7. Продолжительность : 1 ч. 39 м.
  8. Режим общего битрейта : Переменный
  9. Общий поток : 25,9 Мбит/сек
  10. Название фильма : Prospect (2018) BDRemux 1080p. grab777
  11. Дата кодирования : UTC 2019-12-31 08:22:44
  12. Программа кодирования : mkvmerge v7.3.0 ('Nouages') 64bit built on Oct 22 2014 18:53:34
  13. Библиотека кодирования : libebml v1.3.0 + libmatroska v1.4.1
  14.  
  15. Видео
  16. Идентификатор : 1
  17. Формат : AVC
  18. Формат/Информация : Advanced Video Codec
  19. Профиль формата : High@L4.1
  20. Настройки формата : CABAC / 3 Ref Frames
  21. Параметр CABAC формата : Да
  22. Параметр RefFrames формата : 3 кадра
  23. Идентификатор кодека : V_MPEG4/ISO/AVC
  24. Продолжительность : 1 ч. 39 м.
  25. Вид битрейта : Переменный
  26. Битрейт : 23,6 Мбит/сек
  27. Максимальный битрейт : 35,0 Мбит/сек
  28. Ширина : 1920 пикселей
  29. Высота : 1080 пикселей
  30. Соотношение сторон : 16:9
  31. Режим частоты кадров : Постоянный
  32. Частота кадров : 23,976 (24000/1001) кадра/сек
  33. Стандарт вещания : NTSC
  34. Цветовое пространство : YUV
  35. Субдискретизация насыщенности : 4:2:0
  36. Битовая глубина : 8 бит
  37. Тип развёртки : Прогрессивная
  38. Бит/(Пиксели*Кадры) : 0.475
  39. Размер потока : 16,5 Гбайт (91%)
  40. Заголовок : by. grab777
  41. Язык : English
  42. Default : Да
  43. Forced : Нет
  44. Цветовой диапазон : Limited
  45. Основные цвета : BT.709
  46. Характеристики трансфера : BT.709
  47. Коэффициенты матрицы : BT.709
  48.  
  49. Аудио #1
  50. Идентификатор : 2
  51. Формат : AC-3
  52. Формат/Информация : Audio Coding 3
  53. Параметр Endianness формата : Big
  54. Идентификатор кодека : A_AC3
  55. Продолжительность : 1 ч. 39 м.
  56. Вид битрейта : Постоянный
  57. Битрейт : 384 Кбит/сек
  58. Каналы : 6 каналов
  59. Расположение каналов : Front: L C R, Side: L R, LFE
  60. Частота : 48,0 КГц
  61. Частота кадров : 31,250 кадров/сек (1536 SPF)
  62. Битовая глубина : 16 бит
  63. Метод сжатия : С потерями
  64. Задержка видео : 30 мс.
  65. Размер потока : 274 Мбайт (1%)
  66. Заголовок : DUB (iTunes)
  67. Язык : Russian
  68. ServiceKind/String : Complete Main
  69. Default : Да
  70. Forced : Нет
  71.  
  72. Аудио #2
  73. Идентификатор : 3
  74. Формат : DTS
  75. Формат/Информация : Digital Theater Systems
  76. Профиль формата : MA / Core
  77. Режим : 16
  78. Параметр Endianness формата : Big
  79. Идентификатор кодека : A_DTS
  80. Продолжительность : 1 ч. 39 м.
  81. Вид битрейта : Переменный / Постоянный
  82. Битрейт : 1868 Кбит/сек / 1509 Кбит/сек
  83. Каналы : 6 каналов
  84. Расположение каналов : Front: L C R, Side: L R, LFE
  85. Частота : 48,0 КГц
  86. Частота кадров : 93,750 кадра/сек (512 SPF)
  87. Битовая глубина : 16 бит
  88. Метод сжатия : Без потерь / Lossy
  89. Задержка видео : 9 мс.
  90. Размер потока : 1,30 Гбайт (7%)
  91. Заголовок : Original
  92. Язык : English
  93. Default : Нет
  94. Forced : Нет
  95.  
  96. Текст #1
  97. Идентификатор : 4
  98. Формат : UTF-8
  99. Идентификатор кодека : S_TEXT/UTF8
  100. Идентификатор кодека/Информация : UTF-8 Plain Text
  101. Продолжительность : 1 ч. 28 м.
  102. Битрейт : 51 бит/сек
  103. ElementCount : 663
  104. Размер потока : 33,3 Кбайт (0%)
  105. Язык : Russian
  106. Default : Нет
  107. Forced : Нет
  108.  
  109. Текст #2
  110. Идентификатор : 5
  111. Формат : UTF-8
  112. Идентификатор кодека : S_TEXT/UTF8
  113. Идентификатор кодека/Информация : UTF-8 Plain Text
  114. Продолжительность : 1 ч. 33 м.
  115. Битрейт : 32 бит/сек
  116. ElementCount : 755
  117. Размер потока : 22,2 Кбайт (0%)
  118. Язык : English
  119. Default : Нет
  120. Forced : Нет
  121.  
  122. Текст #3
  123. Идентификатор : 6
  124. Формат : PGS
  125. Режим смешивания : zlib
  126. Идентификатор кодека : S_HDMV/PGS
  127. Идентификатор кодека/Информация : Picture based subtitle format used on BDs/HD-DVDs
  128. Продолжительность : 1 ч. 32 м.
  129. Битрейт : 2612 бит/сек
  130. ElementCount : 1034
  131. Размер потока : 1,72 Мбайт (0%)
  132. Язык : Danish
  133. Default : Нет
  134. Forced : Нет
  135.  
  136. Текст #4
  137. Идентификатор : 7
  138. Формат : PGS
  139. Режим смешивания : zlib
  140. Идентификатор кодека : S_HDMV/PGS
  141. Идентификатор кодека/Информация : Picture based subtitle format used on BDs/HD-DVDs
  142. Продолжительность : 1 ч. 32 м.
  143. Битрейт : 2523 бит/сек
  144. ElementCount : 1040
  145. Размер потока : 1,66 Мбайт (0%)
  146. Язык : Finnish
  147. Default : Нет
  148. Forced : Нет
  149.  
  150. Текст #5
  151. Идентификатор : 8
  152. Формат : PGS
  153. Режим смешивания : zlib
  154. Идентификатор кодека : S_HDMV/PGS
  155. Идентификатор кодека/Информация : Picture based subtitle format used on BDs/HD-DVDs
  156. Продолжительность : 1 ч. 32 м.
  157. Битрейт : 2590 бит/сек
  158. ElementCount : 1034
  159. Размер потока : 1,71 Мбайт (0%)
  160. Язык : Norwegian
  161. Default : Нет
  162. Forced : Нет
  163.  
  164. Текст #6
  165. Идентификатор : 9
  166. Формат : PGS
  167. Режим смешивания : zlib
  168. Идентификатор кодека : S_HDMV/PGS
  169. Идентификатор кодека/Информация : Picture based subtitle format used on BDs/HD-DVDs
  170. Продолжительность : 1 ч. 32 м.
  171. Битрейт : 2617 бит/сек
  172. ElementCount : 1034
  173. Размер потока : 1,73 Мбайт (0%)
  174. Язык : Swedish
  175. Default : Нет
  176. Forced : Нет
  177.  
  178. Меню
  179. 00:00:00.000 : en:Chapter 1
  180. 00:13:06.536 : en:Chapter 2
  181. 00:35:13.570 : en:Chapter 3
  182. 00:54:41.236 : en:Chapter 4
  183. 01:12:33.057 : en:Chapter 5
  184. 01:27:07.889 : en:Chapter 6
RAW Paste Data
We use cookies for various purposes including analytics. By continuing to use Pastebin, you agree to our use of cookies as described in the Cookies Policy. OK, I Understand
Top