Advertisement
Guest User

Untitled

a guest
Jun 28th, 2023
122
0
Never
Not a member of Pastebin yet? Sign Up, it unlocks many cool features!
text 8.90 KB | None | 0 0
  1. General
  2. Complete name : Movie.DDVT.mp4
  3. Format : MPEG-4
  4. Format profile : Base Media
  5. Codec ID : isom (isom/dby1/iso2/mp41)
  6. File size : 36.9 GiB
  7. Duration : 3 h 13 min
  8. Overall bit rate mode : Variable
  9. Overall bit rate : 27.3 Mb/s
  10. Movie name : Movie
  11. Tagged date : UTC 2023-06-28 11:47:58
  12. Writing application : Lavf60.5.100
  13.  
  14. Video
  15. ID : 1
  16. Format : HEVC
  17. Format/Info : High Efficiency Video Coding
  18. Format profile : Main 10@L5@High
  19. HDR format : Dolby Vision, Version 1.0, dvhe.08.06, BL+RPU, HDR10 compatible / SMPTE ST 2086, HDR10 compatible
  20. Codec ID : hev1
  21. Codec ID/Info : High Efficiency Video Coding
  22. Duration : 3 h 12 min
  23. Bit rate : 24.7 Mb/s
  24. Width : 3 840 pixels
  25. Height : 2 160 pixels
  26. Display aspect ratio : 16:9
  27. Frame rate mode : Constant
  28. Frame rate : 23.976 (24000/1001) FPS
  29. Color space : YUV
  30. Chroma subsampling : 4:2:0 (Type 2)
  31. Bit depth : 10 bits
  32. Bits/(Pixel*Frame) : 0.124
  33. Stream size : 33.2 GiB (90%)
  34. Title : Movie
  35. Tagged date : UTC 2023-06-28 11:47:58
  36. Color range : Limited
  37. Color primaries : BT.2020
  38. Transfer characteristics : PQ
  39. Matrix coefficients : BT.2020 non-constant
  40. Mastering display color primaries : BT.2020
  41. Mastering display luminance : min: 0.0001 cd/m2, max: 1000 cd/m2
  42. Maximum Content Light Level : 287 cd/m2
  43. Maximum Frame-Average Light Level : 201 cd/m2
  44. Codec configuration box : hvcC+dvvC
  45.  
  46. Audio #1
  47. ID : 2
  48. Format : E-AC-3
  49. Format/Info : Enhanced AC-3
  50. Commercial name : Dolby Digital Plus
  51. Codec ID : ec-3
  52. Duration : 3 h 12 min
  53. Bit rate mode : Constant
  54. Bit rate : 640 kb/s
  55. Channel(s) : 6 channels
  56. Channel layout : L R C LFE Ls Rs
  57. Sampling rate : 48.0 kHz
  58. Frame rate : 31.250 FPS (1536 SPF)
  59. Compression mode : Lossy
  60. Stream size : 883 MiB (2%)
  61. Title : FR FR 5.1
  62. Language : English
  63. Service kind : Complete Main
  64. Default : Yes
  65. Alternate group : 1
  66. Tagged date : UTC 2023-06-28 11:47:58
  67.  
  68. Audio #2
  69. ID : 3
  70. Format : E-AC-3
  71. Format/Info : Enhanced AC-3
  72. Commercial name : Dolby Digital Plus
  73. Codec ID : ec-3
  74. Duration : 3 h 13 min
  75. Bit rate mode : Constant
  76. Bit rate : 640 kb/s
  77. Channel(s) : 6 channels
  78. Channel layout : L R C LFE Ls Rs
  79. Sampling rate : 48.0 kHz
  80. Frame rate : 31.250 FPS (1536 SPF)
  81. Compression mode : Lossy
  82. Stream size : 884 MiB (2%)
  83. Title : FR CA 5.1
  84. Language : English
  85. Service kind : Complete Main
  86. Default : No
  87. Alternate group : 1
  88. Tagged date : UTC 2023-06-28 11:47:58
  89.  
  90. Audio #3
  91. ID : 4
  92. Format : E-AC-3 JOC
  93. Format/Info : Enhanced AC-3 with Joint Object Coding
  94. Commercial name : Dolby Digital Plus with Dolby Atmos
  95. Codec ID : ec-3
  96. Duration : 3 h 12 min
  97. Bit rate mode : Constant
  98. Bit rate : 768 kb/s
  99. Channel(s) : 6 channels
  100. Channel layout : L R C LFE Ls Rs
  101. Sampling rate : 48.0 kHz
  102. Frame rate : 31.250 FPS (1536 SPF)
  103. Compression mode : Lossy
  104. Stream size : 1.03 GiB (3%)
  105. Title : US Atmos 5.1
  106. Language : English
  107. Service kind : Complete Main
  108. Default : No
  109. Alternate group : 1
  110. Tagged date : UTC 2023-06-28 11:47:58
  111. Complexity index : Not present / 16
  112. Number of dynamic objects : 15
  113. Bed channel count : 1 channel
  114. Bed channel configuration : LFE
  115.  
  116. Audio #4
  117. ID : 5
  118. Format : E-AC-3
  119. Format/Info : Enhanced AC-3
  120. Commercial name : Dolby Digital Plus
  121. Codec ID : ec-3
  122. Duration : 3 h 12 min
  123. Bit rate mode : Constant
  124. Bit rate : 640 kb/s
  125. Channel(s) : 6 channels
  126. Channel layout : L R C LFE Ls Rs
  127. Sampling rate : 48.0 kHz
  128. Frame rate : 31.250 FPS (1536 SPF)
  129. Compression mode : Lossy
  130. Stream size : 883 MiB (2%)
  131. Title : US 5.1
  132. Language : English
  133. Service kind : Complete Main
  134. Default : No
  135. Alternate group : 1
  136. Tagged date : UTC 2023-06-28 11:47:58
  137.  
  138. Text #1
  139. ID : 6
  140. Format : Timed Text
  141. Muxing mode : sbtl
  142. Codec ID : tx3g
  143. Duration : 1 h 46 min
  144. Bit rate mode : Variable
  145. Bit rate : 2 b/s
  146. Stream size : 1.92 KiB (0%)
  147. Title : FORCED
  148. Language : English
  149. Default : Yes
  150. Forced : No
  151. Alternate group : 3
  152.  
  153. Text #2
  154. ID : 7
  155. Format : Timed Text
  156. Muxing mode : sbtl
  157. Codec ID : tx3g
  158. Duration : 3 h 12 min
  159. Bit rate mode : Variable
  160. Bit rate : 52 b/s
  161. Stream size : 73.5 KiB (0%)
  162. Title : FULL
  163. Language : English
  164. Default : No
  165. Forced : No
  166. Alternate group : 3
  167.  
  168. Text #3
  169. ID : 8
  170. Format : Timed Text
  171. Muxing mode : sbtl
  172. Codec ID : tx3g
  173. Duration : 3 h 11 min
  174. Bit rate mode : Variable
  175. Bit rate : 55 b/s
  176. Stream size : 76.8 KiB (0%)
  177. Title : SDH
  178. Language : English
  179. Default : No
  180. Forced : No
  181. Alternate group : 3
  182.  
  183.  
  184.  
Advertisement
Add Comment
Please, Sign In to add comment
Advertisement