SHARE
TWEET

Untitled

Legitrips May 24th, 2019 170 Never
Not a member of Pastebin yet? Sign Up, it unlocks many cool features!
  1. General
  2. Unique ID                                : 266500913984556675518017591585234784550 (0xC87E3583F82754890384F47E7D2C9126)
  3. Complete name                            : Kanojo ga Nekomimi ni Kigaetara (BD 1080p AAC).mkv
  4. Format                                   : Matroska
  5. Format version                           : Version 4
  6. File size                                : 1.01 GiB
  7. Duration                                 : 25 min 1 s
  8. Overall bit rate                         : 5 805 kb/s
  9. Encoded date                             : UTC 2019-05-25 00:08:46
  10. Writing application                      : mkvmerge v34.0.0 ('Sight and Seen') 64-bit
  11. Writing library                          : libebml v1.3.7 + libmatroska v1.5.0 / Lavf58.26.101
  12. Cover                                    : Yes
  13. Attachments                              : Cover.jpg / hazelgrace2.ttf / MyriadPro-Semibold.ttf / MyriadPro-SemiboldIt.ttf / TWILIGHT.TTF / Zephyr.TTF
  14.  
  15. Video
  16. ID                                       : 1
  17. Format                                   : AVC
  18. Format/Info                              : Advanced Video Codec
  19. Format profile                           : High 10@L4
  20. Format settings                          : CABAC / 4 Ref Frames
  21. Format settings, CABAC                   : Yes
  22. Format settings, RefFrames               : 4 frames
  23. Codec ID                                 : V_MPEG4/ISO/AVC
  24. Duration                                 : 25 min 1 s
  25. Bit rate                                 : 5 281 kb/s
  26. Width                                    : 1 920 pixels
  27. Height                                   : 1 080 pixels
  28. Display aspect ratio                     : 16:9
  29. Frame rate mode                          : Variable
  30. Frame rate                               : 23.976 FPS
  31. Color space                              : YUV
  32. Chroma subsampling                       : 4:2:0
  33. Bit depth                                : 10 bits
  34. Scan type                                : Progressive
  35. Bits/(Pixel*Frame)                       : 0.106
  36. Stream size                              : 945 MiB (91%)
  37. Writing library                          : x264 core 157 r2969 d4099dd
  38. Encoding settings                        : cabac=1 / ref=3 / deblock=1:0:0 / analyse=0x3:0x113 / me=hex / subme=7 / psy=1 / psy_rd=1.00:0.00 / mixed_ref=1 / me_range=16 / chroma_me=1 / trellis=1 / 8x8dct=1 / cqm=0 / deadzone=21,11 / fast_pskip=1 / chroma_qp_offset=-2 / threads=6 / lookahead_threads=1 / sliced_threads=0 / nr=0 / decimate=1 / interlaced=0 / bluray_compat=0 / constrained_intra=0 / bframes=3 / b_pyramid=2 / b_adapt=1 / b_bias=0 / direct=1 / weightb=1 / open_gop=0 / weightp=2 / keyint=250 / keyint_min=23 / scenecut=40 / intra_refresh=0 / rc_lookahead=40 / rc=crf / mbtree=1 / crf=16.0 / qcomp=0.60 / qpmin=0 / qpmax=81 / qpstep=4 / ip_ratio=1.40 / aq=1:1.00
  39. Language                                 : English
  40. Default                                  : No
  41. Forced                                   : No
  42.  
  43. Audio #1
  44. ID                                       : 2
  45. Format                                   : AAC LC
  46. Format/Info                              : Advanced Audio Codec Low Complexity
  47. Codec ID                                 : A_AAC-2
  48. Duration                                 : 25 min 1 s
  49. Bit rate                                 : 258 kb/s
  50. Channel(s)                               : 2 channels
  51. Channel layout                           : L R
  52. Sampling rate                            : 48.0 kHz
  53. Frame rate                               : 46.875 FPS (1024 SPF)
  54. Compression mode                         : Lossy
  55. Stream size                              : 46.2 MiB (4%)
  56. Language                                 : Japanese
  57. Default                                  : Yes
  58. Forced                                   : No
  59.  
  60. Audio #2
  61. ID                                       : 3
  62. Format                                   : AAC LC
  63. Format/Info                              : Advanced Audio Codec Low Complexity
  64. Codec ID                                 : A_AAC-2
  65. Duration                                 : 25 min 1 s
  66. Bit rate                                 : 255 kb/s
  67. Channel(s)                               : 2 channels
  68. Channel layout                           : L R
  69. Sampling rate                            : 48.0 kHz
  70. Frame rate                               : 46.875 FPS (1024 SPF)
  71. Compression mode                         : Lossy
  72. Stream size                              : 45.6 MiB (4%)
  73. Language                                 : English
  74. Default                                  : No
  75. Forced                                   : No
  76.  
  77. Text
  78. ID                                       : 4
  79. Format                                   : ASS
  80. Codec ID                                 : S_TEXT/ASS
  81. Codec ID/Info                            : Advanced Sub Station Alpha
  82. Duration                                 : 22 min 54 s
  83. Bit rate                                 : 165 b/s
  84. Count of elements                        : 380
  85. Compression mode                         : Lossless
  86. Stream size                              : 27.7 KiB (0%)
  87. Language                                 : English
  88. Default                                  : Yes
  89. Forced                                   : No
  90.  
  91. Menu
  92. 00:00:00.000                             : en:Beginning
  93. 00:01:09.038                             : en:Part A
  94. 00:08:18.090                             : en:Part B
  95. 00:18:00.029                             : en:Part C
  96. 00:23:28.290                             : en:End
RAW Paste Data
We use cookies for various purposes including analytics. By continuing to use Pastebin, you agree to our use of cookies as described in the Cookies Policy. OK, I Understand
 
Top