Ledger Nano X - The secure hardware wallet
SHARE
TWEET

Untitled

seleZennet Jan 8th, 2020 86 Never
Not a member of Pastebin yet? Sign Up, it unlocks many cool features!
  1. General
  2. Unique ID                   : 70338814497432603430372872583423966145 (0x34EAC34E06A015993532E023BE4FBBC1)
  3. Complete name               : E:\Vid\Jexi.2019.BDRip.720p.seleZen.mkv
  4. Format                      : Matroska
  5. Format version              : Version 4
  6. File size                   : 4.13 GiB
  7. Duration                    : 1 h 24 min
  8. Overall bit rate            : 7 003 kb/s
  9. Movie name                  : Jexi 2019 from селезень
  10. Encoded date                : UTC 2020-01-08 14:22:21
  11. Writing application         : mkvmerge v41.0.0 ('Smarra') 64-bit
  12. Writing library             : libebml v1.3.9 + libmatroska v1.5.2
  13.  
  14. Video
  15. ID                          : 1
  16. Format                      : AVC
  17. Format/Info                 : Advanced Video Codec
  18. Format profile              : High@L4.1
  19. Format settings             : CABAC / 12 Ref Frames
  20. Format settings, CABAC      : Yes
  21. Format settings, Reference  : 12 frames
  22. Codec ID                    : V_MPEG4/ISO/AVC
  23. Duration                    : 1 h 24 min
  24. Bit rate                    : 5 977 kb/s
  25. Width                       : 1 280 pixels
  26. Height                      : 536 pixels
  27. Display aspect ratio        : 2.40:1
  28. Frame rate mode             : Constant
  29. Frame rate                  : 23.976 (24000/1001) FPS
  30. Color space                 : YUV
  31. Chroma subsampling          : 4:2:0
  32. Bit depth                   : 8 bits
  33. Scan type                   : Progressive
  34. Bits/(Pixel*Frame)          : 0.363
  35. Stream size                 : 3.52 GiB (85%)
  36. Writing library             : x264 core 158 r2984+49 6932f4a t_mod_New [0-bit@all X86_64]
  37. Encoding settings           : cabac=1 / ref=12 / deblock=1:-3:-3 / analyse=0x3:0x133 / me=umh / subme=10 / psy=1 / fade_compensate=0.00 / psy_rd=1.00:0.00 / mixed_ref=1 / me_range=32 / chroma_me=1 / trellis=2 / 8x8dct=1 / cqm=0 / deadzone=21,11 / fast_pskip=0 / chroma_qp_offset=-2 / threads=16 / lookahead_threads=4 / sliced_threads=0 / nr=0 / decimate=0 / interlaced=0 / bluray_compat=0 / constrained_intra=0 / fgo=0 / bframes=12 / b_pyramid=2 / b_adapt=2 / b_bias=0 / direct=3 / weightb=1 / open_gop=0 / weightp=2 / keyint=480 / keyint_min=24 / scenecut=40 / intra_refresh=0 / rc_lookahead=80 / rc=crf / mbtree=0 / crf=15.5000 / qcomp=0.60 / qpmin=0:0:0 / qpmax=69:69:69 / qpstep=4 / vbv_maxrate=62500 / vbv_bufsize=78125 / crf_max=0.0 / nal_hrd=none / filler=0 / ip_ratio=1.30 / pb_ratio=1.20 / aq=3:0.80 / aq-sensitivity=10.00 / aq-factor=1.00:1.00:1.00 / aq2=0 / aq3=0
  38. Language                    : English
  39. Default                     : Yes
  40. Forced                      : No
  41. Color range                 : Limited
  42. Color primaries             : BT.709
  43. Transfer characteristics    : BT.709
  44. Matrix coefficients         : BT.709
  45.  
  46. Audio #1
  47. ID                          : 2
  48. Format                      : AC-3
  49. Format/Info                 : Audio Coding 3
  50. Commercial name             : Dolby Digital
  51. Codec ID                    : A_AC3
  52. Duration                    : 1 h 24 min
  53. Bit rate mode               : Constant
  54. Bit rate                    : 384 kb/s
  55. Channel(s)                  : 6 channels
  56. Channel layout              : L R C LFE Ls Rs
  57. Sampling rate               : 48.0 kHz
  58. Frame rate                  : 31.250 FPS (1536 SPF)
  59. Compression mode            : Lossy
  60. Stream size                 : 232 MiB (5%)
  61. Title                       : Dub. iTunes
  62. Language                    : Russian
  63. Service kind                : Complete Main
  64. Default                     : Yes
  65. Forced                      : Yes
  66.  
  67. Audio #2
  68. ID                          : 3
  69. Format                      : AC-3
  70. Format/Info                 : Audio Coding 3
  71. Commercial name             : Dolby Digital
  72. Codec ID                    : A_AC3
  73. Duration                    : 1 h 24 min
  74. Bit rate mode               : Constant
  75. Bit rate                    : 640 kb/s
  76. Channel(s)                  : 6 channels
  77. Channel layout              : L R C LFE Ls Rs
  78. Sampling rate               : 48.0 kHz
  79. Frame rate                  : 31.250 FPS (1536 SPF)
  80. Compression mode            : Lossy
  81. Stream size                 : 386 MiB (9%)
  82. Title                       : Orig.
  83. Language                    : English
  84. Service kind                : Complete Main
  85. Default                     : No
  86. Forced                      : No
  87.  
  88. Text
  89. ID                          : 4
  90. Format                      : UTF-8
  91. Codec ID                    : S_TEXT/UTF8
  92. Codec ID/Info               : UTF-8 Plain Text
  93. Duration                    : 1 h 19 min
  94. Bit rate                    : 94 b/s
  95. Count of elements           : 1800
  96. Stream size                 : 55.0 KiB (0%)
  97. Title                       : Full
  98. Language                    : English
  99. Default                     : No
  100. Forced                      : No
  101.  
  102. Menu
  103. 00:00:00.000                : en:Chapter 1
  104. 00:05:59.401                : en:Chapter 2
  105. 00:08:49.988                : en:Chapter 3
  106. 00:15:44.986                : en:Chapter 4
  107. 00:19:08.272                : en:Chapter 5
  108. 00:25:11.427                : en:Chapter 6
  109. 00:29:39.528                : en:Chapter 7
  110. 00:36:41.324                : en:Chapter 8
  111. 00:40:59.499                : en:Chapter 9
  112. 00:45:43.282                : en:Chapter 10
  113. 00:49:47.401                : en:Chapter 11
  114. 00:57:13.763                : en:Chapter 12
  115. 01:01:16.172                : en:Chapter 13
  116. 01:05:10.573                : en:Chapter 14
  117. 01:10:05.826                : en:Chapter 15
  118. 01:15:38.117                : en:Chapter 16
RAW Paste Data
We use cookies for various purposes including analytics. By continuing to use Pastebin, you agree to our use of cookies as described in the Cookies Policy. OK, I Understand
Top