SHARE
TWEET

IABL2011

SampaD22 May 25th, 2019 82 Never
Not a member of Pastebin yet? Sign Up, it unlocks many cool features!
  1. Format                      : Matroska
  2. Format version              : Version 4
  3. File size                   : 3.67 GiB
  4. Duration                    : 1 h 30 min
  5. Overall bit rate            : 5 819 kb/s
  6. Movie name                  : I Am Bruce Lee (2012) [SD22]
  7. Encoded date                : UTC 2019-05-25 19:07:18
  8. Writing application         : mkvmerge v34.0.0 ('Sight and Seen') 64-bit
  9. Writing library             : libebml v1.3.7 + libmatroska v1.5.0
  10. Cover                       : Yes
  11. Attachments                 : cover.jpg
  12. Writing frontend            : StaxRip v2.0.0.0
  13.  
  14. Video
  15. ID                          : 1
  16. Format                      : HEVC
  17. Format/Info                 : High Efficiency Video Coding
  18. Format profile              : Main 10@L4@Main
  19. Codec ID                    : V_MPEGH/ISO/HEVC
  20. Duration                    : 1 h 30 min
  21. Bit rate                    : 5 449 kb/s
  22. Width                       : 1 920 pixels
  23. Height                      : 1 080 pixels
  24. Display aspect ratio        : 16:9
  25. Frame rate mode             : Constant
  26. Frame rate                  : 25.000 FPS
  27. Color space                 : YUV
  28. Chroma subsampling          : 4:2:0
  29. Bit depth                   : 10 bits
  30. Bits/(Pixel*Frame)          : 0.105
  31. Stream size                 : 3.43 GiB (94%)
  32. Writing library             : x265 2.9+2-7e978ed93d60:[Windows][GCC 8.2.0][64 bit] 10bit
  33. Encoding settings           : cpuid=1049583 / frame-threads=3 / numa-pools=16,16 / wpp / no-pmode / no-pme / no-psnr / no-ssim / log-level=2 / csv / csv-log-level=0 / input-csp=1 / input-res=1920x1080 / interlace=0 / total-frames=135336 / level-idc=0 / high-tier=1 / uhd-bd=0 / ref=4 / no-allow-non-conformance / no-repeat-headers / annexb / no-aud / no-hrd / info / hash=0 / no-temporal-layers / open-gop / min-keyint=23 / keyint=250 / gop-lookahead=0 / bframes=8 / b-adapt=2 / b-pyramid / bframe-bias=0 / rc-lookahead=80 / lookahead-slices=4 / scenecut=40 / radl=0 / no-intra-refresh / ctu=64 / min-cu-size=8 / rect / no-amp / max-tu-size=32 / tu-inter-depth=1 / tu-intra-depth=1 / limit-tu=0 / rdoq-level=2 / dynamic-rd=0.00 / no-ssim-rd / signhide / no-tskip / nr-intra=0 / nr-inter=0 / no-constrained-intra / strong-intra-smoothing / max-merge=3 / limit-refs=3 / limit-modes / me=3 / subme=3 / merange=57 / temporal-mvp / no-weightp / no-weightb / no-analyze-src-pics / no-deblock / no-sao / no-sao-non-deblock / rd=4 / no-early-skip / rskip / no-fast-intra / no-tskip-fast / no-cu-lossless / no-b-intra / no-splitrd-skip / rdpenalty=0 / psy-rd=2.00 / psy-rdoq=1.00 / no-rd-refine / no-lossless / cbqpoffs=0 / crqpoffs=0 / rc=crf / crf=19.0 / qcomp=0.60 / qpstep=4 / stats-write=0 / stats-read=0 / ipratio=1.40 / pbratio=1.30 / aq-mode=3 / aq-strength=1.00 / cutree / zone-count=0 / no-strict-cbr / qg-size=32 / no-rc-grain / qpmax=69 / qpmin=0 / no-const-vbv / sar=0 / overscan=0 / videoformat=5 / range=0 / colorprim=2 / transfer=2 / colormatrix=2 / chromaloc=0 / display-window=0 / max-cll=0,0 / min-luma=0 / max-luma=1023 / log2-max-poc-lsb=8 / vui-timing-info / vui-hrd-info / slices=1 / no-opt-qp-pps / no-opt-ref-list-length-pps / no-multi-pass-opt-rps / scenecut-bias=0.00 / no-opt-cu-delta-qp / aq-motion / no-hdr / no-hdr-opt / no-dhdr10-opt / no-idr-recovery-sei / analysis-reuse-level=5 / scale-factor=0 / refine-intra=0 / refine-inter=0 / refine-mv=0 / no-limit-sao / ctu-info=0 / no-lowpass-dct / refine-mv-type=0 / copy-pic=1 / max-ausize-factor=1.0 / no-dynamic-refine / no-single-sei
  34. Default                     : Yes
  35. Forced                      : No
  36. Color range                 : Limited
  37.  
  38. Audio
  39. ID                          : 2
  40. Format                      : AAC LC
  41. Format/Info                 : Advanced Audio Codec Low Complexity
  42. Codec ID                    : A_AAC-2
  43. Duration                    : 1 h 30 min
  44. Bit rate                    : 366 kb/s
  45. Channel(s)                  : 6 channels
  46. Channel layout              : C L R Ls Rs LFE
  47. Sampling rate               : 48.0 kHz
  48. Frame rate                  : 46.875 FPS (1024 SPF)
  49. Compression mode            : Lossy
  50. Delay relative to video     : 20 ms
  51. Stream size                 : 236 MiB (6%)
  52. Title                       : English (Surround)
  53. Language                    : English
  54. Default                     : No
  55. Forced                      : No
  56.  
  57. Text
  58. ID                          : 3
  59. Format                      : VobSub
  60. Muxing mode                 : zlib
  61. Codec ID                    : S_VOBSUB
  62. Codec ID/Info               : Picture based subtitle format used on DVDs
  63. Duration                    : 1 h 29 min
  64. Bit rate                    : 4 740 b/s
  65. Count of elements           : 1465
  66. Stream size                 : 3.05 MiB (0%)
  67. Title                       : English
  68. Language                    : English
  69. Default                     : Yes
  70. Forced                      : No
RAW Paste Data
We use cookies for various purposes including analytics. By continuing to use Pastebin, you agree to our use of cookies as described in the Cookies Policy. OK, I Understand
 
Top