seleZennet

Untitled

Feb 18th, 2020
94
Never
Not a member of Pastebin yet? Sign Up, it unlocks many cool features!
  1. General
  2. Unique ID : 4274070143499846226394551609683416410 (0x33727ED7A62CF4850035950A2C5155A)
  3. Complete name : E:\Video111\Villains.2019.BDREMUX.1080p.seleZen.mkv
  4. Format : Matroska
  5. Format version : Version 4
  6. File size : 11.4 GiB
  7. Duration : 1 h 29 min
  8. Overall bit rate mode : Variable
  9. Overall bit rate : 18.1 Mb/s
  10. Movie name : Villains 2019 from селезень
  11. Encoded date : UTC 2020-02-18 22:19:55
  12. Writing application : mkvmerge v40.0.0 ('Old Town Road + Pony') 64-bit
  13. Writing library : libebml v1.3.9 + libmatroska v1.5.2
  14.  
  15. Video
  16. ID : 1
  17. Format : AVC
  18. Format/Info : Advanced Video Codec
  19. Format profile : High@L4.1
  20. Format settings : CABAC / 2 Ref Frames
  21. Format settings, CABAC : Yes
  22. Format settings, Reference : 2 frames
  23. Format settings, GOP : M=1, N=5
  24. Codec ID : V_MPEG4/ISO/AVC
  25. Duration : 1 h 29 min
  26. Bit rate mode : Variable
  27. Bit rate : 14.8 Mb/s
  28. Maximum bit rate : 32.2 Mb/s
  29. Width : 1 920 pixels
  30. Height : 1 080 pixels
  31. Display aspect ratio : 16:9
  32. Frame rate mode : Constant
  33. Frame rate : 23.976 (24000/1001) FPS
  34. Color space : YUV
  35. Chroma subsampling : 4:2:0
  36. Bit depth : 8 bits
  37. Scan type : Progressive
  38. Bits/(Pixel*Frame) : 0.297
  39. Stream size : 9.27 GiB (82%)
  40. Language : English
  41. Default : Yes
  42. Forced : No
  43.  
  44. Audio #1
  45. ID : 2
  46. Format : AC-3
  47. Format/Info : Audio Coding 3
  48. Commercial name : Dolby Digital
  49. Codec ID : A_AC3
  50. Duration : 1 h 29 min
  51. Bit rate mode : Constant
  52. Bit rate : 384 kb/s
  53. Channel(s) : 6 channels
  54. Channel layout : L R C LFE Ls Rs
  55. Sampling rate : 48.0 kHz
  56. Frame rate : 31.250 FPS (1536 SPF)
  57. Compression mode : Lossy
  58. Delay relative to video : 15 ms
  59. Stream size : 247 MiB (2%)
  60. Title : iTunes
  61. Language : Russian
  62. Service kind : Complete Main
  63. Default : Yes
  64. Forced : Yes
  65.  
  66. Audio #2
  67. ID : 3
  68. Format : DTS XLL
  69. Format/Info : Digital Theater Systems
  70. Commercial name : DTS-HD Master Audio
  71. Codec ID : A_DTS
  72. Duration : 1 h 29 min
  73. Bit rate mode : Variable
  74. Bit rate : 2 946 kb/s
  75. Channel(s) : 6 channels
  76. Channel layout : C L R Ls Rs LFE
  77. Sampling rate : 48.0 kHz
  78. Frame rate : 93.750 FPS (512 SPF)
  79. Bit depth : 24 bits
  80. Compression mode : Lossless
  81. Stream size : 1.85 GiB (16%)
  82. Title : Original
  83. Language : English
  84. Default : No
  85. Forced : No
  86.  
  87. Text #1
  88. ID : 4
  89. Format : UTF-8
  90. Codec ID : S_TEXT/UTF8
  91. Codec ID/Info : UTF-8 Plain Text
  92. Duration : 1 h 29 min
  93. Bit rate : 78 b/s
  94. Count of elements : 1082
  95. Stream size : 51.5 KiB (0%)
  96. Title : Full
  97. Language : Russian
  98. Default : No
  99. Forced : No
  100.  
  101. Text #2
  102. ID : 5
  103. Format : UTF-8
  104. Codec ID : S_TEXT/UTF8
  105. Codec ID/Info : UTF-8 Plain Text
  106. Duration : 1 h 24 min
  107. Bit rate : 62 b/s
  108. Count of elements : 1292
  109. Stream size : 38.6 KiB (0%)
  110. Title : Full
  111. Language : English
  112. Default : No
  113. Forced : No
  114.  
  115. Menu
  116. 00:00:00.000 : en:Chapter 1
  117. 00:03:10.732 : en:Chapter 2
  118. 00:10:35.467 : en:Chapter 3
  119. 00:15:13.703 : en:Chapter 4
  120. 00:22:59.294 : en:Chapter 5
  121. 00:29:21.425 : en:Chapter 6
  122. 00:37:47.931 : en:Chapter 7
  123. 00:46:39.629 : en:Chapter 8
  124. 00:54:07.618 : en:Chapter 9
  125. 01:01:24.471 : en:Chapter 10
  126. 01:08:48.999 : en:Chapter 11
  127. 01:12:15.288 : en:Chapter 12
  128. 01:19:56.749 : en:Chapter 13
  129. 01:22:31.779 : en:Chapter 14
RAW Paste Data