daily pastebin goal
39%
SHARE
TWEET

Untitled

a guest Jul 19th, 2018 13 Never
Not a member of Pastebin yet? Sign Up, it unlocks many cool features!
  1. General
  2. Complete name                  : G:\IMG_1513.mp4
  3. Format                         : MPEG-4
  4. Format profile                 : QuickTime
  5. Codec ID                       : qt   0000.00 (qt  )
  6. File size                      : 6.83 GiB
  7. Duration                       : 21 min 32 s
  8. Overall bit rate mode          : Variable
  9. Overall bit rate               : 45.4 Mb/s
  10. Encoded date                   : UTC 2018-07-19 12:29:45
  11. Tagged date                    : UTC 2018-07-19 12:31:28
  12. Writing library                : Apple QuickTime
  13. com.apple.quicktime.make       : Apple
  14. com.apple.quicktime.model      : iPad Pro (10.5-inch)
  15. com.apple.quicktime.software   : 10.3.2
  16. com.apple.quicktime.creationda : 2018-07-19T09:06:25-0300
  17.  
  18. Video
  19. ID                             : 1
  20. Format                         : AVC
  21. Format/Info                    : Advanced Video Codec
  22. Format profile                 : High@L5.1
  23. Format settings                : CABAC / 1 Ref Frames
  24. Format settings, CABAC         : Yes
  25. Format settings, ReFrames      : 1 frame
  26. Format settings, GOP           : M=1, N=15
  27. Codec ID                       : avc1
  28. Codec ID/Info                  : Advanced Video Coding
  29. Duration                       : 21 min 32 s
  30. Bit rate                       : 45.3 Mb/s
  31. Width                          : 3 840 pixels
  32. Height                         : 2 160 pixels
  33. Display aspect ratio           : 16:9
  34. Rotation                       : 180°
  35. Frame rate mode                : Variable
  36. Frame rate                     : 30.000 FPS
  37. Minimum frame rate             : 28.571 FPS
  38. Maximum frame rate             : 31.579 FPS
  39. Color space                    : YUV
  40. Chroma subsampling             : 4:2:0
  41. Bit depth                      : 8 bits
  42. Scan type                      : Progressive
  43. Bits/(Pixel*Frame)             : 0.182
  44. Stream size                    : 6.81 GiB (100%)
  45. Title                          : Core Media Video
  46. Encoded date                   : UTC 2018-07-19 12:29:45
  47. Tagged date                    : UTC 2018-07-19 12:31:28
  48. Color range                    : Limited
  49. Color primaries                : BT.709
  50. Transfer characteristics       : BT.709
  51. Matrix coefficients            : BT.709
  52.  
  53. Audio
  54. ID                             : 2
  55. Format                         : AAC
  56. Format/Info                    : Advanced Audio Codec
  57. Format profile                 : LC
  58. Codec ID                       : mp4a-40-2
  59. Duration                       : 21 min 32 s
  60. Source duration                : 21 min 33 s
  61. Bit rate mode                  : Variable
  62. Bit rate                       : 86.5 kb/s
  63. Channel(s)                     : 1 channel
  64. Channel positions              : Front: C
  65. Sampling rate                  : 44.1 kHz
  66. Frame rate                     : 43.066 FPS (1024 SPF)
  67. Compression mode               : Lossy
  68. Stream size                    : 13.3 MiB (0%)
  69. Source stream size             : 13.3 MiB (0%)
  70. Title                          : Core Media Audio
  71. Encoded date                   : UTC 2018-07-19 12:29:45
  72. Tagged date                    : UTC 2018-07-19 12:31:28
  73.  
  74. Other
  75. Type                           : meta
  76. Duration                       : 21 min 32 s
  77. Bit rate mode                  : VBR
RAW Paste Data
We use cookies for various purposes including analytics. By continuing to use Pastebin, you agree to our use of cookies as described in the Cookies Policy. OK, I Understand
 
Top