seleZennet

Untitled

Oct 22nd, 2019
173
Never
Not a member of Pastebin yet? Sign Up, it unlocks many cool features!
  1. General
  2. Unique ID : 64028799399640790495241117059933253010 (0x302B7F8A794DCCBA5F309CE3C6B7AD92)
  3. Complete name : D:\Video111\Red.Heat.1988.BDREMUX.2160p.HDR.seleZen.mkv
  4. Format : Matroska
  5. Format version : Version 4
  6. File size : 49.2 GiB
  7. Duration : 1 h 44 min
  8. Overall bit rate mode : Variable
  9. Overall bit rate : 67.7 Mb/s
  10. Movie name : Red Heat 1988 4K from селезень
  11. Encoded date : UTC 2019-10-22 10:21:01
  12. Writing application : mkvmerge v22.0.0 ('At The End Of The World') 64-bit
  13. Writing library : libebml v1.3.5 + libmatroska v1.4.8
  14.  
  15. Video
  16. ID : 1
  17. Format : HEVC
  18. Format/Info : High Efficiency Video Coding
  19. Format profile : Main 10@L5.1@High
  20. HDR format : SMPTE ST 2086, HDR10 compatible
  21. Codec ID : V_MPEGH/ISO/HEVC
  22. Duration : 1 h 44 min
  23. Bit rate : 63.0 Mb/s
  24. Width : 3 840 pixels
  25. Height : 2 160 pixels
  26. Display aspect ratio : 16:9
  27. Frame rate mode : Constant
  28. Frame rate : 24.000 FPS
  29. Color space : YUV
  30. Chroma subsampling : 4:2:0 (Type 2)
  31. Bit depth : 10 bits
  32. Bits/(Pixel*Frame) : 0.316
  33. Stream size : 45.8 GiB (93%)
  34. Language : English
  35. Default : Yes
  36. Forced : No
  37. Color range : Limited
  38. Color primaries : BT.2020
  39. Transfer characteristics : PQ
  40. Matrix coefficients : BT.2020 non-constant
  41. Mastering display color pri : BT.2020
  42. Mastering display luminance : min: 0.0001 cd/m2, max: 1000 cd/m2
  43.  
  44. Audio #1
  45. ID : 2
  46. Format : AC-3
  47. Format/Info : Audio Coding 3
  48. Commercial name : Dolby Digital
  49. Codec ID : A_AC3
  50. Duration : 1 h 43 min
  51. Bit rate mode : Constant
  52. Bit rate : 448 kb/s
  53. Channel(s) : 6 channels
  54. Channel layout : L R C LFE Ls Rs
  55. Sampling rate : 48.0 kHz
  56. Frame rate : 31.250 FPS (1536 SPF)
  57. Bit depth : 16 bits
  58. Compression mode : Lossy
  59. Stream size : 333 MiB (1%)
  60. Title : MVO [License]
  61. Language : Russian
  62. Service kind : Complete Main
  63. Default : Yes
  64. Forced : Yes
  65.  
  66. Audio #2
  67. ID : 3
  68. Format : DTS XLL
  69. Format/Info : Digital Theater Systems
  70. Commercial name : DTS-HD Master Audio
  71. Codec ID : A_DTS
  72. Duration : 1 h 44 min
  73. Bit rate mode : Variable
  74. Bit rate : 4 275 kb/s
  75. Channel(s) : 6 channels
  76. Channel layout : C L R Ls Rs LFE
  77. Sampling rate : 48.0 kHz
  78. Frame rate : 93.750 FPS (512 SPF)
  79. Bit depth : 24 bits
  80. Compression mode : Lossless
  81. Stream size : 3.11 GiB (6%)
  82. Title : Original
  83. Language : English
  84. Default : No
  85. Forced : No
  86.  
  87. Text #1
  88. ID : 4
  89. Format : UTF-8
  90. Codec ID : S_TEXT/UTF8
  91. Codec ID/Info : UTF-8 Plain Text
  92. Duration : 1 h 40 min
  93. Bit rate : 91 b/s
  94. Count of elements : 1100
  95. Stream size : 66.8 KiB (0%)
  96. Title : Full
  97. Language : Russian
  98. Default : No
  99. Forced : No
  100.  
  101. Text #2
  102. ID : 5
  103. Format : UTF-8
  104. Codec ID : S_TEXT/UTF8
  105. Codec ID/Info : UTF-8 Plain Text
  106. Duration : 1 h 36 min
  107. Bit rate : 59 b/s
  108. Count of elements : 1129
  109. Stream size : 42.2 KiB (0%)
  110. Title : Full
  111. Language : English
  112. Default : No
  113. Forced : No
  114.  
  115. Menu
  116. 00:00:00.000 : en:Chapter 1
  117. 00:07:50.625 : en:Chapter 2
  118. 00:19:23.083 : en:Chapter 3
  119. 00:26:07.625 : en:Chapter 4
  120. 00:35:07.500 : en:Chapter 5
  121. 00:45:06.167 : en:Chapter 6
  122. 00:54:04.375 : en:Chapter 7
  123. 01:02:52.500 : en:Chapter 8
  124. 01:12:15.417 : en:Chapter 9
  125. 01:21:59.458 : en:Chapter 10
  126. 01:28:36.833 : en:Chapter 11
  127. 01:37:27.292 : en:Chapter 12
RAW Paste Data