Advertisement
Guest User

Untitled

a guest
Jan 7th, 2022
191
Never
Not a member of Pastebin yet? Sign Up, it unlocks many cool features!
  1. Unique ID : 314830715186389846259228274312679821880 (0xECDA30AF92B1BED8E2F56C922A8C9238)
  2. Complete name : H:\Movies\The.Last.Duel.2021.2160p.UHD.BluRay.REMUX.HEVC.Atmos 7.1.SHD13.mkv
  3. Format : Matroska
  4. Format version : Version 4
  5. File size : 75.5 GiB
  6. Duration : 2 h 32 min
  7. Overall bit rate mode : Variable
  8. Overall bit rate : 70.7 Mb/s
  9. Movie name : The.Last.Duel.2021.2160p.UHD.BluRay.REMUX.HEVC.Atmos 7.1.SHD13
  10. Encoded date : UTC 2022-01-07 19:39:47
  11. Writing application : mkvmerge v61.0.0 ('So') 64-bit
  12. Writing library : libebml v1.4.2 + libmatroska v1.6.4
  13. Cover : Yes
  14. Attachments : cover.png
  15.  
  16. Video
  17. ID : 1
  18. Format : HEVC
  19. Format/Info : High Efficiency Video Coding
  20. Format profile : Main 10@L5.1@High
  21. HDR format : SMPTE ST 2086, HDR10 compatible
  22. Codec ID : V_MPEGH/ISO/HEVC
  23. Duration : 2 h 32 min
  24. Bit rate : 43.5 Mb/s
  25. Width : 3 840 pixels
  26. Height : 2 160 pixels
  27. Display aspect ratio : 16:9
  28. Frame rate mode : Constant
  29. Frame rate : 23.976 (24000/1001) FPS
  30. Color space : YUV
  31. Chroma subsampling : 4:2:0 (Type 2)
  32. Bit depth : 10 bits
  33. Bits/(Pixel*Frame) : 0.219
  34. Stream size : 46.4 GiB (62%)
  35. Title : The.Last.Duel.2021.2160p.UHD.BluRay.REMUX.HEVC.Atmos 7.1.SHD13
  36. Default : Yes
  37. Forced : No
  38. Color range : Limited
  39. Color primaries : BT.2020
  40. Transfer characteristics : PQ
  41. Matrix coefficients : BT.2020 non-constant
  42. Mastering display color primaries : Display P3
  43. Mastering display luminance : min: 0.0050 cd/m2, max: 1000 cd/m2
  44.  
  45. Audio #1
  46. ID : 2
  47. Format : E-AC-3
  48. Format/Info : Enhanced AC-3
  49. Commercial name : Dolby Digital Plus
  50. Codec ID : A_EAC3
  51. Duration : 2 h 32 min
  52. Bit rate mode : Constant
  53. Bit rate : 448 kb/s
  54. Channel(s) : 6 channels
  55. Channel layout : L R C LFE Ls Rs
  56. Sampling rate : 48.0 kHz
  57. Frame rate : 31.250 FPS (1536 SPF)
  58. Compression mode : Lossy
  59. Stream size : 489 MiB (1%)
  60. Title : DUB,КинопоискHD
  61. Language : Russian
  62. Service kind : Complete Main
  63. Default : Yes
  64. Forced : No
  65.  
  66. Audio #2
  67. ID : 3
  68. Format : AC-3
  69. Format/Info : Audio Coding 3
  70. Commercial name : Dolby Digital
  71. Codec ID : A_AC3
  72. Duration : 2 h 32 min
  73. Bit rate mode : Constant
  74. Bit rate : 384 kb/s
  75. Channel(s) : 6 channels
  76. Channel layout : L R C LFE Ls Rs
  77. Sampling rate : 48.0 kHz
  78. Frame rate : 31.250 FPS (1536 SPF)
  79. Compression mode : Lossy
  80. Stream size : 419 MiB (1%)
  81. Title : DUB,iTunes
  82. Language : Russian
  83. Service kind : Complete Main
  84. Default : No
  85. Forced : No
  86.  
  87. Audio #3
  88. ID : 4
  89. Format : DTS XLL
  90. Format/Info : Digital Theater Systems
  91. Commercial name : DTS-HD Master Audio
  92. Codec ID : A_DTS
  93. Duration : 2 h 32 min
  94. Bit rate mode : Variable
  95. Bit rate : 5 032 kb/s
  96. Channel(s) : 8 channels
  97. Channel layout : C L R LFE Lb Rb Lss Rss
  98. Sampling rate : 48.0 kHz
  99. Frame rate : 93.750 FPS (512 SPF)
  100. Bit depth : 24 bits
  101. Compression mode : Lossless
  102. Stream size : 5.37 GiB (7%)
  103. Title : MVO, HDRezka Studio
  104. Language : Russian
  105. Default : No
  106. Forced : No
  107.  
  108. Audio #4
  109. ID : 5
  110. Format : DTS XLL
  111. Format/Info : Digital Theater Systems
  112. Commercial name : DTS-HD Master Audio
  113. Codec ID : A_DTS
  114. Duration : 2 h 32 min
  115. Bit rate mode : Variable
  116. Bit rate : 4 748 kb/s
  117. Channel(s) : 8 channels
  118. Channel layout : C L R LFE Lb Rb Lss Rss
  119. Sampling rate : 48.0 kHz
  120. Frame rate : 93.750 FPS (512 SPF)
  121. Bit depth : 24 bits
  122. Compression mode : Lossless
  123. Stream size : 5.06 GiB (7%)
  124. Title : MVO, Jaskier
  125. Language : Russian
  126. Default : No
  127. Forced : No
  128.  
  129. Audio #5
  130. ID : 6
  131. Format : DTS XLL
  132. Format/Info : Digital Theater Systems
  133. Commercial name : DTS-HD Master Audio
  134. Codec ID : A_DTS
  135. Duration : 2 h 32 min
  136. Bit rate mode : Variable
  137. Bit rate : 5 014 kb/s
  138. Channel(s) : 8 channels
  139. Channel layout : C L R LFE Lb Rb Lss Rss
  140. Sampling rate : 48.0 kHz
  141. Frame rate : 93.750 FPS (512 SPF)
  142. Bit depth : 24 bits
  143. Compression mode : Lossless
  144. Stream size : 5.35 GiB (7%)
  145. Title : DVO, PazlVoice
  146. Language : Russian
  147. Default : No
  148. Forced : No
  149.  
  150. Audio #6
  151. ID : 7
  152. Format : DTS XLL
  153. Format/Info : Digital Theater Systems
  154. Commercial name : DTS-HD Master Audio
  155. Codec ID : A_DTS
  156. Duration : 2 h 32 min
  157. Bit rate mode : Variable
  158. Bit rate : 5 052 kb/s
  159. Channel(s) : 8 channels
  160. Channel layout : C L R LFE Lb Rb Lss Rss
  161. Sampling rate : 48.0 kHz
  162. Frame rate : 93.750 FPS (512 SPF)
  163. Bit depth : 24 bits
  164. Compression mode : Lossless
  165. Stream size : 5.39 GiB (7%)
  166. Title : AVO,Сербин
  167. Language : Russian
  168. Default : No
  169. Forced : No
  170.  
  171. Audio #7
  172. ID : 8
  173. Format : MLP FBA 16-ch
  174. Format/Info : Meridian Lossless Packing FBA with 16-channel presentation
  175. Commercial name : Dolby TrueHD with Dolby Atmos
  176. Codec ID : A_TRUEHD
  177. Duration : 2 h 32 min
  178. Bit rate mode : Variable
  179. Bit rate : 4 446 kb/s
  180. Maximum bit rate : 8 448 kb/s
  181. Channel(s) : 8 channels
  182. Channel layout : L R C LFE Ls Rs Lb Rb
  183. Sampling rate : 48.0 kHz
  184. Frame rate : 1 200.000 FPS (40 SPF)
  185. Compression mode : Lossless
  186. Stream size : 4.74 GiB (6%)
  187. Title : ORIGINAL
  188. Language : English
  189. Default : No
  190. Forced : No
  191. Number of dynamic objects : 13
  192. Bed channel count : 1 channel
  193. Bed channel configuration : LFE
  194.  
  195. Audio #8
  196. ID : 9
  197. Format : AC-3
  198. Format/Info : Audio Coding 3
  199. Commercial name : Dolby Digital
  200. Codec ID : A_AC3
  201. Duration : 2 h 32 min
  202. Bit rate mode : Constant
  203. Bit rate : 640 kb/s
  204. Channel(s) : 6 channels
  205. Channel layout : L R C LFE Ls Rs
  206. Sampling rate : 48.0 kHz
  207. Frame rate : 31.250 FPS (1536 SPF)
  208. Compression mode : Lossy
  209. Stream size : 699 MiB (1%)
  210. Title : ORIGINAL
  211. Language : English
  212. Service kind : Complete Main
  213. Default : No
  214. Forced : No
  215.  
  216. Audio #9
  217. ID : 10
  218. Format : AC-3
  219. Format/Info : Audio Coding 3
  220. Commercial name : Dolby Digital
  221. Codec ID : A_AC3
  222. Duration : 2 h 32 min
  223. Bit rate mode : Constant
  224. Bit rate : 320 kb/s
  225. Channel(s) : 2 channels
  226. Channel layout : L R
  227. Sampling rate : 48.0 kHz
  228. Frame rate : 31.250 FPS (1536 SPF)
  229. Compression mode : Lossy
  230. Stream size : 350 MiB (0%)
  231. Language : English
  232. Service kind : Complete Main
  233. Default : No
  234. Forced : No
  235.  
  236. Audio #10
  237. ID : 11
  238. Format : E-AC-3
  239. Format/Info : Enhanced AC-3
  240. Commercial name : Dolby Digital Plus
  241. Format profile : Blu-ray Disc
  242. Codec ID : A_EAC3
  243. Duration : 2 h 32 min
  244. Bit rate mode : Constant
  245. Bit rate : 1 024 kb/s
  246. Channel(s) : 8 channels
  247. Channel layout : L R C LFE Ls Rs Lb Rb
  248. Sampling rate : 48.0 kHz
  249. Frame rate : 31.250 FPS (1536 SPF)
  250. Compression mode : Lossy
  251. Stream size : 1.09 GiB (1%)
  252. Language : German
  253. Service kind : Complete Main
  254. Default : No
  255. Forced : No
  256.  
  257. Text #1
  258. ID : 12
  259. Format : UTF-8
  260. Codec ID : S_TEXT/UTF8
  261. Codec ID/Info : UTF-8 Plain Text
  262. Duration : 2 h 22 min
  263. Bit rate : 1 b/s
  264. Count of elements : 35
  265. Stream size : 1.62 KiB (0%)
  266. Title : FORCED
  267. Language : Russian
  268. Default : Yes
  269. Forced : No
  270.  
  271. Text #2
  272. ID : 13
  273. Format : UTF-8
  274. Codec ID : S_TEXT/UTF8
  275. Codec ID/Info : UTF-8 Plain Text
  276. Duration : 2 h 22 min
  277. Bit rate : 68 b/s
  278. Count of elements : 1613
  279. Stream size : 71.6 KiB (0%)
  280. Title : FULL
  281. Language : Russian
  282. Default : No
  283. Forced : No
  284.  
  285. Text #3
  286. ID : 14
  287. Format : UTF-8
  288. Codec ID : S_TEXT/UTF8
  289. Codec ID/Info : UTF-8 Plain Text
  290. Duration : 2 h 22 min
  291. Bit rate : 1 b/s
  292. Count of elements : 35
  293. Stream size : 1.62 KiB (0%)
  294. Title : FORCED
  295. Language : Russian
  296. Default : No
  297. Forced : No
  298.  
  299. Text #4
  300. ID : 15
  301. Format : UTF-8
  302. Codec ID : S_TEXT/UTF8
  303. Codec ID/Info : UTF-8 Plain Text
  304. Duration : 2 h 31 min
  305. Bit rate : 76 b/s
  306. Count of elements : 1693
  307. Stream size : 84.9 KiB (0%)
  308. Title : FULL,iTunes
  309. Language : Russian
  310. Default : No
  311. Forced : No
  312.  
  313. Text #5
  314. ID : 16
  315. Format : UTF-8
  316. Codec ID : S_TEXT/UTF8
  317. Codec ID/Info : UTF-8 Plain Text
  318. Duration : 23 s 232 ms
  319. Bit rate : 49 b/s
  320. Count of elements : 6
  321. Stream size : 143 Bytes (0%)
  322. Title : FORCED
  323. Language : English
  324. Default : No
  325. Forced : No
  326.  
  327. Text #6
  328. ID : 17
  329. Format : UTF-8
  330. Codec ID : S_TEXT/UTF8
  331. Codec ID/Info : UTF-8 Plain Text
  332. Duration : 2 h 22 min
  333. Bit rate : 47 b/s
  334. Count of elements : 1684
  335. Stream size : 49.7 KiB (0%)
  336. Title : SDH
  337. Language : English
  338. Default : Yes
  339. Forced : No
  340.  
  341. Text #7
  342. ID : 18
  343. Format : PGS
  344. Muxing mode : zlib
  345. Codec ID : S_HDMV/PGS
  346. Codec ID/Info : Picture based subtitle format used on BDs/HD-DVDs
  347. Duration : 2 h 22 min
  348. Bit rate : 412 b/s
  349. Count of elements : 34
  350. Stream size : 432 KiB (0%)
  351. Title : FORCED
  352. Language : German
  353. Default : No
  354. Forced : No
  355.  
  356. Text #8
  357. ID : 19
  358. Format : PGS
  359. Muxing mode : zlib
  360. Codec ID : S_HDMV/PGS
  361. Codec ID/Info : Picture based subtitle format used on BDs/HD-DVDs
  362. Duration : 2 h 31 min
  363. Bit rate : 31.2 kb/s
  364. Count of elements : 3224
  365. Stream size : 33.8 MiB (0%)
  366. Title : FULL
  367. Language : German
  368. Default : No
  369. Forced : No
  370.  
  371. Menu
  372. 00:00:00.000 : Глава 01
  373. 00:05:02.051 : Глава 02
  374. 00:09:42.456 : Глава 03
  375. 00:17:43.645 : Глава 04
  376. 00:25:59.933 : Глава 05
  377. 00:33:25.294 : Глава 06
  378. 00:38:51.370 : Глава 07
  379. 00:42:34.593 : Глава 08
  380. 00:54:23.510 : Глава 09
  381. 01:05:52.490 : Глава 10
  382. 01:17:07.456 : Глава 11
  383. 01:25:24.702 : Глава 12
  384. 01:32:50.273 : Глава 13
  385. 01:40:17.177 : Глава 14
  386. 01:52:06.720 : Глава 15
  387. 02:05:28.521 : Глава 16
  388. 02:22:25.537 : Глава 17
  389.  
  390.  
Advertisement
Advertisement
Advertisement
RAW Paste Data Copied
Advertisement