SHARE
TWEET

Untitled

a guest Sep 16th, 2019 96 Never
Not a member of Pastebin yet? Sign Up, it unlocks many cool features!
  1. General
  2. Unique ID                   : 100304592766955425190674205653020288637 (0x4B75F63D91442D7DEDD6F5D6C4ADA67D)
  3. Complete name               : D:\Video111\In.Fabric.2018.BDREMUX.1080p.seleZen.mkv
  4. Format                      : Matroska
  5. Format version              : Version 4
  6. File size                   : 25.1 GiB
  7. Duration                    : 1 h 58 min
  8. Overall bit rate mode       : Variable
  9. Overall bit rate            : 30.2 Mb/s
  10. Movie name                  : In Fabric 2018 from селезень
  11. Encoded date                : UTC 2019-09-16 10:52:16
  12. Writing application         : mkvmerge v22.0.0 ('At The End Of The World') 64-bit
  13. Writing library             : libebml v1.3.5 + libmatroska v1.4.8
  14.  
  15. Video
  16. ID                          : 1
  17. Format                      : AVC
  18. Format/Info                 : Advanced Video Codec
  19. Format profile              : High@L4.1
  20. Format settings             : CABAC / 4 Ref Frames
  21. Format settings, CABAC      : Yes
  22. Format settings, Reference  : 4 frames
  23. Codec ID                    : V_MPEG4/ISO/AVC
  24. Duration                    : 1 h 58 min
  25. Bit rate mode               : Variable
  26. Bit rate                    : 26.6 Mb/s
  27. Maximum bit rate            : 35.0 Mb/s
  28. Width                       : 1 920 pixels
  29. Height                      : 1 080 pixels
  30. Display aspect ratio        : 16:9
  31. Frame rate mode             : Constant
  32. Frame rate                  : 24.000 FPS
  33. Color space                 : YUV
  34. Chroma subsampling          : 4:2:0
  35. Bit depth                   : 8 bits
  36. Scan type                   : Progressive
  37. Bits/(Pixel*Frame)          : 0.534
  38. Stream size                 : 22.0 GiB (88%)
  39. Language                    : English
  40. Default                     : Yes
  41. Forced                      : No
  42.  
  43. Audio #1
  44. ID                          : 2
  45. Format                      : AC-3
  46. Format/Info                 : Audio Coding 3
  47. Commercial name             : Dolby Digital
  48. Codec ID                    : A_AC3
  49. Duration                    : 1 h 58 min
  50. Bit rate mode               : Constant
  51. Bit rate                    : 384 kb/s
  52. Channel(s)                  : 6 channels
  53. Channel layout              : L R C LFE Ls Rs
  54. Sampling rate               : 48.0 kHz
  55. Frame rate                  : 31.250 FPS (1536 SPF)
  56. Bit depth                   : 16 bits
  57. Compression mode            : Lossy
  58. Stream size                 : 326 MiB (1%)
  59. Title                       : iTunes
  60. Language                    : Russian
  61. Service kind                : Complete Main
  62. Default                     : Yes
  63. Forced                      : Yes
  64.  
  65. Audio #2
  66. ID                          : 3
  67. Format                      : DTS XLL
  68. Format/Info                 : Digital Theater Systems
  69. Commercial name             : DTS-HD Master Audio
  70. Codec ID                    : A_DTS
  71. Duration                    : 1 h 58 min
  72. Bit rate mode               : Variable
  73. Bit rate                    : 3 262 kb/s
  74. Channel(s)                  : 6 channels
  75. Channel layout              : C L R Ls Rs LFE
  76. Sampling rate               : 48.0 kHz
  77. Frame rate                  : 93.750 FPS (512 SPF)
  78. Bit depth                   : 24 bits
  79. Compression mode            : Lossless
  80. Stream size                 : 2.70 GiB (11%)
  81. Title                       : Original
  82. Language                    : English
  83. Default                     : No
  84. Forced                      : No
  85.  
  86. Text
  87. ID                          : 4
  88. Format                      : UTF-8
  89. Codec ID                    : S_TEXT/UTF8
  90. Codec ID/Info               : UTF-8 Plain Text
  91. Duration                    : 1 h 56 min
  92. Bit rate                    : 51 b/s
  93. Count of elements           : 1209
  94. Stream size                 : 43.7 KiB (0%)
  95. Title                       : SDH
  96. Language                    : English
  97. Default                     : No
  98. Forced                      : No
  99.  
  100. Menu
  101. 00:00:00.000                : :Chapter 01
  102. 00:07:20.000                : :Chapter 02
  103. 00:17:53.000                : :Chapter 03
  104. 00:24:32.000                : :Chapter 04
  105. 00:37:39.875                : :Chapter 05
  106. 00:57:11.750                : :Chapter 06
  107. 01:05:46.917                : :Chapter 07
  108. 01:14:55.625                : :Chapter 08
  109. 01:27:47.792                : :Chapter 09
  110. 01:39:48.333                : :Chapter 10
  111. 01:46:39.333                : :Chapter 11
  112. 01:53:46.958                : :Chapter 12
RAW Paste Data
We use cookies for various purposes including analytics. By continuing to use Pastebin, you agree to our use of cookies as described in the Cookies Policy. OK, I Understand
Not a member of Pastebin yet?
Sign Up, it unlocks many cool features!
 
Top