SHARE
TWEET

KA2C-0007

wfhtony Apr 19th, 2019 (edited) 106 Never
Not a member of Pastebin yet? Sign Up, it unlocks many cool features!
  1. REM GENRE ゲーム
  2. REM DATE 2019
  3. REM DISCID 7D0D7E19
  4. REM COMMENT "ExactAudioCopy v1.3"
  5. CATALOG 4573477880070
  6. PERFORMER "大越香里(C2)"
  7. TITLE "艦隊これくしょん -艦これ- KanColle Original Sound Track vol.Ⅴ 波"
  8. REM COMPOSER "大越香里"
  9. FILE "KA2C-0007.wav" WAVE
  10.   TRACK 01 AUDIO
  11.     TITLE "長波、駆ける"
  12.     PERFORMER "大越香里(C2)"
  13.     REM COMPOSER "大越香里"
  14.     ISRC JPW361900001
  15.     INDEX 01 00:00:00
  16.   TRACK 02 AUDIO
  17.     TITLE "海鷲の翼"
  18.     PERFORMER "大越香里(C2)"
  19.     REM COMPOSER "大越香里"
  20.     ISRC JPW361900002
  21.     INDEX 00 02:19:33
  22.     INDEX 01 02:21:14
  23.   TRACK 03 AUDIO
  24.     TITLE "基地航空隊"
  25.     PERFORMER "大越香里(C2)"
  26.     REM COMPOSER "大越香里"
  27.     ISRC JPW361900003
  28.     INDEX 00 04:23:09
  29.     INDEX 01 04:23:28
  30.   TRACK 04 AUDIO
  31.     TITLE "噴式の胎動"
  32.     PERFORMER "大越香里(C2)"
  33.     REM COMPOSER "大越香里"
  34.     ISRC JPW361900004
  35.     INDEX 00 05:38:74
  36.     INDEX 01 05:39:32
  37.   TRACK 05 AUDIO
  38.     TITLE "鎮守府秋刀魚祭り改"
  39.     PERFORMER "大越香里(C2)"
  40.     REM COMPOSER "大越香里"
  41.     ISRC JPW361900005
  42.     INDEX 00 06:54:36
  43.     INDEX 01 06:54:40
  44.   TRACK 06 AUDIO
  45.     TITLE "艦娘音頭(Inst.)"
  46.     PERFORMER "大越香里(C2)"
  47.     REM COMPOSER "大越香里"
  48.     ISRC JPW361900006
  49.     INDEX 00 10:39:61
  50.     INDEX 01 10:41:28
  51.   TRACK 07 AUDIO
  52.     TITLE "警戒線"
  53.     PERFORMER "大越香里(C2)"
  54.     REM COMPOSER "大越香里"
  55.     ISRC JPW361900007
  56.     INDEX 00 12:51:62
  57.     INDEX 01 12:53:43
  58.   TRACK 08 AUDIO
  59.     TITLE "機動部隊を追え!"
  60.     PERFORMER "大越香里(C2)"
  61.     REM COMPOSER "大越香里"
  62.     ISRC JPW361900008
  63.     INDEX 00 14:44:12
  64.     INDEX 01 14:44:58
  65.   TRACK 09 AUDIO
  66.     TITLE "泡沫のシャングリア"
  67.     PERFORMER "大越香里(C2)"
  68.     REM COMPOSER "大越香里"
  69.     ISRC JPW361900009
  70.     INDEX 00 17:03:70
  71.     INDEX 01 17:04:38
  72.   TRACK 10 AUDIO
  73.     TITLE "水底の世界"
  74.     PERFORMER "大越香里(C2)"
  75.     REM COMPOSER "大越香里"
  76.     ISRC JPW361900010
  77.     INDEX 00 19:43:49
  78.     INDEX 01 19:44:09
  79.   TRACK 11 AUDIO
  80.     TITLE "渚を越えて"
  81.     PERFORMER "Ms.MISTER、大越香里(C2)"
  82.     REM COMPOSER "大越香里"
  83.     ISRC JPW361900011
  84.     INDEX 00 21:54:70
  85.     INDEX 01 21:55:21
  86.   TRACK 12 AUDIO
  87.     TITLE "粉雪の降る夜"
  88.     PERFORMER "大越香里(C2)"
  89.     REM COMPOSER "大越香里"
  90.     ISRC JPW361900012
  91.     INDEX 00 23:13:31
  92.     INDEX 01 23:15:12
  93.   TRACK 13 AUDIO
  94.     TITLE "師走の鎮守府"
  95.     PERFORMER "大越香里(C2)"
  96.     REM COMPOSER "大越香里"
  97.     ISRC JPW361900013
  98.     INDEX 00 26:04:15
  99.     INDEX 01 26:04:44
  100.   TRACK 14 AUDIO
  101.     TITLE "舞鶴の港"
  102.     PERFORMER "大越香里(C2)"
  103.     REM COMPOSER "大越香里"
  104.     ISRC JPW361900014
  105.     INDEX 00 27:59:22
  106.     INDEX 01 28:01:03
  107.   TRACK 15 AUDIO
  108.     TITLE "「光」作戦"
  109.     PERFORMER "大越香里(C2)"
  110.     REM COMPOSER "大越香里"
  111.     ISRC JPW361900015
  112.     INDEX 00 29:57:12
  113.     INDEX 01 29:57:30
  114.   TRACK 16 AUDIO
  115.     TITLE "トラック目指して"
  116.     PERFORMER "大越香里(C2)"
  117.     REM COMPOSER "大越香里"
  118.     ISRC JPW361900016
  119.     INDEX 00 32:29:68
  120.     INDEX 01 32:30:28
  121.   TRACK 17 AUDIO
  122.     TITLE "遥かなるウルシー泊地"
  123.     PERFORMER "大越香里(C2)"
  124.     REM COMPOSER "大越香里"
  125.     ISRC JPW361900017
  126.     INDEX 00 34:49:16
  127.     INDEX 01 34:51:54
  128.   TRACK 18 AUDIO
  129.     TITLE "西方打通作戦発動"
  130.     PERFORMER "大越香里(C2)"
  131.     REM COMPOSER "大越香里"
  132.     ISRC JPW361900018
  133.     INDEX 00 37:35:27
  134.     INDEX 01 37:37:07
  135.   TRACK 19 AUDIO
  136.     TITLE "特務艦隊抜錨!西へ"
  137.     PERFORMER "大越香里(C2)"
  138.     REM COMPOSER "大越香里"
  139.     ISRC JPW361900019
  140.     INDEX 00 39:01:08
  141.     INDEX 01 39:01:48
  142.   TRACK 20 AUDIO
  143.     TITLE "特務艦隊の戦い"
  144.     PERFORMER "大越香里(C2)"
  145.     REM COMPOSER "大越香里"
  146.     ISRC JPW361900020
  147.     INDEX 00 41:42:21
  148.     INDEX 01 41:44:02
  149.   TRACK 21 AUDIO
  150.     TITLE "西方の海"
  151.     PERFORMER "大越香里(C2)"
  152.     REM COMPOSER "大越香里"
  153.     ISRC JPW361900021
  154.     INDEX 00 44:24:45
  155.     INDEX 01 44:26:24
  156.   TRACK 22 AUDIO
  157.     TITLE "地中海の戦い"
  158.     PERFORMER "大越香里(C2)"
  159.     REM COMPOSER "大越香里"
  160.     ISRC JPW361900022
  161.     INDEX 00 46:28:14
  162.     INDEX 01 46:29:70
  163.   TRACK 23 AUDIO
  164.     TITLE "鎮魂の大西洋"
  165.     PERFORMER "Ms.MISTER、大越香里(C2)"
  166.     REM COMPOSER "大越香里"
  167.     ISRC JPW361900023
  168.     INDEX 00 49:20:56
  169.     INDEX 01 49:21:30
  170.   TRACK 24 AUDIO
  171.     TITLE "連合艦隊旗艦"
  172.     PERFORMER "大越香里(C2)"
  173.     REM COMPOSER "大越香里"
  174.     ISRC JPW361900024
  175.     INDEX 00 51:18:20
  176.     INDEX 01 51:20:13
  177.   TRACK 25 AUDIO
  178.     TITLE "艦娘音頭"
  179.     PERFORMER "タニベユミ(C2)"
  180.     REM COMPOSER "大越香里"
  181.     ISRC JPW361900025
  182.     INDEX 00 54:13:34
  183.     INDEX 01 54:15:43
RAW Paste Data
We use cookies for various purposes including analytics. By continuing to use Pastebin, you agree to our use of cookies as described in the Cookies Policy. OK, I Understand
Not a member of Pastebin yet?
Sign Up, it unlocks many cool features!
 
Top