SHARE
TWEET

Handbrake activity log - Wayland

DrJohnWalker Nov 23rd, 2018 82 Never
Not a member of Pastebin yet? Sign Up, it unlocks many cool features!
  1. [11:08:50] gtkgui: HandBrake 20181019210024-0288c01-v1.1.2 (2018101901) - Linux x86_64 - https://handbrake.fr
  2. [11:08:50] hb_init: starting libhb thread
  3. [11:08:50] hb_init: starting libhb thread
  4. [11:08:50] hb_init: starting libhb thread
  5. libdvdread: Encrypted DVD support unavailable.
  6. [11:09:25] CPU: Intel(R) Core(TM) i5-3570K CPU @ 3.40GHz
  7. [11:09:25]  - Intel microarchitecture Ivy Bridge
  8. [11:09:25]  - logical processor count: 4
  9. [11:09:25] hb_scan: path=/home/john/Media/Video/TV Shows/Futurama/2001 Series 03, title_index=0
  10. disc.c:424: error opening file BDMV/index.bdmv
  11. disc.c:424: error opening file BDMV/BACKUP/index.bdmv
  12. [11:09:25] bd: not a bd - trying as a stream/file instead
  13. libdvdnav: Using dvdnav version 6.0.0
  14. libdvdread: Encrypted DVD support unavailable.
  15. libdvdread: Couldn't find device name.
  16. libdvdread:DVDOpenFilePath:findDVDFile /VIDEO_TS/VIDEO_TS.IFO failed
  17. libdvdread:DVDOpenFilePath:findDVDFile /VIDEO_TS/VIDEO_TS.BUP failed
  18. libdvdread: Can't open file VIDEO_TS.IFO.
  19. libdvdnav: vm: failed to read VIDEO_TS.IFO
  20. [11:09:25] dvd: not a dvd - trying as a stream/file instead
  21. [11:09:25] batch: scanning /home/john/Media/Video/TV Shows/Futurama/2001 Series 03/title00.mkv
  22. Input #0, matroska,webm, from '/home/john/Media/Video/TV Shows/Futurama/2001 Series 03/title00.mkv':
  23.   Duration: 00:21:42.01, start: 0.000000, bitrate: N/A
  24.     Chapter #0:0: start 0.080000, end 242.560000
  25.     Metadata:
  26.       title           : Chapter 01
  27.     Chapter #0:1: start 242.560000, end 493.960000
  28.     Metadata:
  29.       title           : Chapter 02
  30.     Chapter #0:2: start 493.960000, end 867.640000
  31.     Metadata:
  32.       title           : Chapter 03
  33.     Chapter #0:3: start 867.640000, end 1035.080000
  34.     Metadata:
  35.       title           : Chapter 04
  36.     Chapter #0:4: start 1035.080000, end 1302.016000
  37.     Metadata:
  38.       title           : Chapter 05
  39.     Stream #0:0(eng): Video: mpeg2video (Main)
  40.       yuv420p, tv, 720x576 [PAR 16:15 DAR 4:3], 7500 kb/s, PAR 16:15 DAR 4:3
  41.       25 fps, 1k tbn
  42.     Metadata:
  43.       BPS-eng         : 5444107
  44.       DURATION-eng    : 00:21:42.000000000
  45.       NUMBER_OF_FRAMES-eng: 32550
  46.       NUMBER_OF_BYTES-eng: 886028564
  47.       SOURCE_ID-eng   : 0100E0
  48.       _STATISTICS_WRITING_APP-eng: MakeMKV v1.12.3 linux(x64-release)
  49.       _STATISTICS_WRITING_DATE_UTC-eng: 2018-11-23 10:57:27
  50.       _STATISTICS_TAGS-eng: BPS DURATION NUMBER_OF_FRAMES NUMBER_OF_BYTES SOURCE_ID
  51.     Stream #0:1(eng): Audio: ac3
  52.       48000 Hz, stereo, fltp, 192 kb/s (default)
  53.     Metadata:
  54.       title           : Stereo
  55.       BPS-eng         : 192000
  56.       DURATION-eng    : 00:21:41.984000000
  57.       NUMBER_OF_FRAMES-eng: 40687
  58.       NUMBER_OF_BYTES-eng: 31247616
  59.       SOURCE_ID-eng   : 0180BD
  60.       _STATISTICS_WRITING_APP-eng: MakeMKV v1.12.3 linux(x64-release)
  61.       _STATISTICS_WRITING_DATE_UTC-eng: 2018-11-23 10:57:27
  62.       _STATISTICS_TAGS-eng: BPS DURATION NUMBER_OF_FRAMES NUMBER_OF_BYTES SOURCE_ID
  63.     Stream #0:2(fre): Audio: ac3
  64.       48000 Hz, stereo, fltp, 192 kb/s
  65.     Metadata:
  66.       title           : Stereo
  67.       BPS-eng         : 192000
  68.       DURATION-eng    : 00:21:41.984000000
  69.       NUMBER_OF_FRAMES-eng: 40687
  70.       NUMBER_OF_BYTES-eng: 31247616
  71.       SOURCE_ID-eng   : 0181BD
  72.       _STATISTICS_WRITING_APP-eng: MakeMKV v1.12.3 linux(x64-release)
  73.       _STATISTICS_WRITING_DATE_UTC-eng: 2018-11-23 10:57:27
  74.       _STATISTICS_TAGS-eng: BPS DURATION NUMBER_OF_FRAMES NUMBER_OF_BYTES SOURCE_ID
  75.     Stream #0:3(eng): Audio: ac3
  76.       48000 Hz, stereo, fltp, 192 kb/s
  77.     Metadata:
  78.       title           : Stereo
  79.       BPS-eng         : 192000
  80.       DURATION-eng    : 00:21:42.016000000
  81.       NUMBER_OF_FRAMES-eng: 40688
  82.       NUMBER_OF_BYTES-eng: 31248384
  83.       SOURCE_ID-eng   : 0182BD
  84.       _STATISTICS_WRITING_APP-eng: MakeMKV v1.12.3 linux(x64-release)
  85.       _STATISTICS_WRITING_DATE_UTC-eng: 2018-11-23 10:57:27
  86.       _STATISTICS_TAGS-eng: BPS DURATION NUMBER_OF_FRAMES NUMBER_OF_BYTES SOURCE_ID
  87.     Stream #0:4(dan): Subtitle: dvd_subtitle (default)
  88.     Metadata:
  89.       BPS-eng         : 2740
  90.       DURATION-eng    : 00:21:35.309866666
  91.       NUMBER_OF_FRAMES-eng: 226
  92.       NUMBER_OF_BYTES-eng: 443724
  93.       SOURCE_ID-eng   : 0120BD
  94.       _STATISTICS_WRITING_APP-eng: MakeMKV v1.12.3 linux(x64-release)
  95.       _STATISTICS_WRITING_DATE_UTC-eng: 2018-11-23 10:57:27
  96.       _STATISTICS_TAGS-eng: BPS DURATION NUMBER_OF_FRAMES NUMBER_OF_BYTES SOURCE_ID
  97.     Stream #0:5(eng): Subtitle: dvd_subtitle
  98.     Metadata:
  99.       BPS-eng         : 3523
  100.       DURATION-eng    : 00:21:31.509866666
  101.       NUMBER_OF_FRAMES-eng: 306
  102.       NUMBER_OF_BYTES-eng: 568856
  103.       SOURCE_ID-eng   : 0121BD
  104.       _STATISTICS_WRITING_APP-eng: MakeMKV v1.12.3 linux(x64-release)
  105.       _STATISTICS_WRITING_DATE_UTC-eng: 2018-11-23 10:57:27
  106.       _STATISTICS_TAGS-eng: BPS DURATION NUMBER_OF_FRAMES NUMBER_OF_BYTES SOURCE_ID
  107.     Stream #0:6(fin): Subtitle: dvd_subtitle
  108.     Metadata:
  109.       BPS-eng         : 2967
  110.       DURATION-eng    : 00:21:31.469866666
  111.       NUMBER_OF_FRAMES-eng: 246
  112.       NUMBER_OF_BYTES-eng: 479076
  113.       SOURCE_ID-eng   : 0122BD
  114.       _STATISTICS_WRITING_APP-eng: MakeMKV v1.12.3 linux(x64-release)
  115.       _STATISTICS_WRITING_DATE_UTC-eng: 2018-11-23 10:57:27
  116.       _STATISTICS_TAGS-eng: BPS DURATION NUMBER_OF_FRAMES NUMBER_OF_BYTES SOURCE_ID
  117.     Stream #0:7(fre): Subtitle: dvd_subtitle
  118.     Metadata:
  119.       BPS-eng         : 3010
  120.       DURATION-eng    : 00:21:34.789866666
  121.       NUMBER_OF_FRAMES-eng: 257
  122.       NUMBER_OF_BYTES-eng: 487216
  123.       SOURCE_ID-eng   : 0123BD
  124.       _STATISTICS_WRITING_APP-eng: MakeMKV v1.12.3 linux(x64-release)
  125.       _STATISTICS_WRITING_DATE_UTC-eng: 2018-11-23 10:57:27
  126.       _STATISTICS_TAGS-eng: BPS DURATION NUMBER_OF_FRAMES NUMBER_OF_BYTES SOURCE_ID
  127.     Stream #0:8(nor): Subtitle: dvd_subtitle
  128.     Metadata:
  129.       BPS-eng         : 2932
  130.       DURATION-eng    : 00:21:35.309866666
  131.       NUMBER_OF_FRAMES-eng: 261
  132.       NUMBER_OF_BYTES-eng: 474872
  133.       SOURCE_ID-eng   : 0124BD
  134.       _STATISTICS_WRITING_APP-eng: MakeMKV v1.12.3 linux(x64-release)
  135.       _STATISTICS_WRITING_DATE_UTC-eng: 2018-11-23 10:57:27
  136.       _STATISTICS_TAGS-eng: BPS DURATION NUMBER_OF_FRAMES NUMBER_OF_BYTES SOURCE_ID
  137.     Stream #0:9(swe): Subtitle: dvd_subtitle
  138.     Metadata:
  139.       BPS-eng         : 2418
  140.       DURATION-eng    : 00:21:35.309866666
  141.       NUMBER_OF_FRAMES-eng: 218
  142.       NUMBER_OF_BYTES-eng: 391520
  143.       SOURCE_ID-eng   : 0125BD
  144.       _STATISTICS_WRITING_APP-eng: MakeMKV v1.12.3 linux(x64-release)
  145.       _STATISTICS_WRITING_DATE_UTC-eng: 2018-11-23 10:57:27
  146.       _STATISTICS_TAGS-eng: BPS DURATION NUMBER_OF_FRAMES NUMBER_OF_BYTES SOURCE_ID
  147.     Stream #0:10(fre): Subtitle: dvd_subtitle
  148.     Metadata:
  149.       BPS-eng         : 108
  150.       DURATION-eng    : 00:21:34.789866666
  151.       NUMBER_OF_FRAMES-eng: 13
  152.       NUMBER_OF_BYTES-eng: 17484
  153.       SOURCE_ID-eng   : 0126BD
  154.       _STATISTICS_WRITING_APP-eng: MakeMKV v1.12.3 linux(x64-release)
  155.       _STATISTICS_WRITING_DATE_UTC-eng: 2018-11-23 10:57:27
  156.       _STATISTICS_TAGS-eng: BPS DURATION NUMBER_OF_FRAMES NUMBER_OF_BYTES SOURCE_ID
  157.     Stream #0:11(eng): Subtitle: dvd_subtitle
  158.     Metadata:
  159.       BPS-eng         : 5492
  160.       DURATION-eng    : 00:21:33.989866666
  161.       NUMBER_OF_FRAMES-eng: 402
  162.       NUMBER_OF_BYTES-eng: 888348
  163.       SOURCE_ID-eng   : 0127BD
  164.       _STATISTICS_WRITING_APP-eng: MakeMKV v1.12.3 linux(x64-release)
  165.       _STATISTICS_WRITING_DATE_UTC-eng: 2018-11-23 10:57:27
  166.       _STATISTICS_TAGS-eng: BPS DURATION NUMBER_OF_FRAMES NUMBER_OF_BYTES SOURCE_ID
  167.     Stream #0:12(fre): Subtitle: dvd_subtitle
  168.     Metadata:
  169.       BPS-eng         : 4238
  170.       DURATION-eng    : 00:21:33.989866666
  171.       NUMBER_OF_FRAMES-eng: 346
  172.       NUMBER_OF_BYTES-eng: 685592
  173.       SOURCE_ID-eng   : 0128BD
  174.       _STATISTICS_WRITING_APP-eng: MakeMKV v1.12.3 linux(x64-release)
  175.       _STATISTICS_WRITING_DATE_UTC-eng: 2018-11-23 10:57:27
  176.       _STATISTICS_TAGS-eng: BPS DURATION NUMBER_OF_FRAMES NUMBER_OF_BYTES SOURCE_ID
  177. [11:09:25] batch: scanning /home/john/Media/Video/TV Shows/Futurama/2001 Series 03/title01.mkv
  178. Input #0, matroska,webm, from '/home/john/Media/Video/TV Shows/Futurama/2001 Series 03/title01.mkv':
  179.   Duration: 00:21:42.60, start: 0.000000, bitrate: N/A
  180.     Chapter #0:0: start 0.080000, end 326.800000
  181.     Metadata:
  182.       title           : Chapter 01
  183.     Chapter #0:1: start 326.800000, end 617.240000
  184.     Metadata:
  185.       title           : Chapter 02
  186.     Chapter #0:2: start 617.240000, end 824.480000
  187.     Metadata:
  188.       title           : Chapter 03
  189.     Chapter #0:3: start 824.480000, end 1136.560000
  190.     Metadata:
  191.       title           : Chapter 04
  192.     Chapter #0:4: start 1136.560000, end 1302.600000
  193.     Metadata:
  194.       title           : Chapter 05
  195.     Stream #0:0(eng): Video: mpeg2video (Main)
  196.       yuv420p, tv, 720x576 [PAR 16:15 DAR 4:3], 7500 kb/s, PAR 16:15 DAR 4:3
  197.       25 fps, 1k tbn
  198.     Metadata:
  199.       BPS-eng         : 5447238
  200.       DURATION-eng    : 00:21:42.600000000
  201.       NUMBER_OF_FRAMES-eng: 32565
  202.       NUMBER_OF_BYTES-eng: 886946644
  203.       SOURCE_ID-eng   : 0100E0
  204.       _STATISTICS_WRITING_APP-eng: MakeMKV v1.12.3 linux(x64-release)
  205.       _STATISTICS_WRITING_DATE_UTC-eng: 2018-11-23 10:59:18
  206.       _STATISTICS_TAGS-eng: BPS DURATION NUMBER_OF_FRAMES NUMBER_OF_BYTES SOURCE_ID
  207.     Stream #0:1(eng): Audio: ac3
  208.       48000 Hz, stereo, fltp, 192 kb/s (default)
  209.     Metadata:
  210.       title           : Stereo
  211.       BPS-eng         : 192000
  212.       DURATION-eng    : 00:21:42.624000000
  213.       NUMBER_OF_FRAMES-eng: 40707
  214.       NUMBER_OF_BYTES-eng: 31262976
  215.       SOURCE_ID-eng   : 0180BD
  216.       _STATISTICS_WRITING_APP-eng: MakeMKV v1.12.3 linux(x64-release)
  217.       _STATISTICS_WRITING_DATE_UTC-eng: 2018-11-23 10:59:18
  218.       _STATISTICS_TAGS-eng: BPS DURATION NUMBER_OF_FRAMES NUMBER_OF_BYTES SOURCE_ID
  219.     Stream #0:2(fre): Audio: ac3
  220.       48000 Hz, stereo, fltp, 192 kb/s
  221.     Metadata:
  222.       title           : Stereo
  223.       BPS-eng         : 192000
  224.       DURATION-eng    : 00:21:42.592000000
  225.       NUMBER_OF_FRAMES-eng: 40706
  226.       NUMBER_OF_BYTES-eng: 31262208
  227.       SOURCE_ID-eng   : 0181BD
  228.       _STATISTICS_WRITING_APP-eng: MakeMKV v1.12.3 linux(x64-release)
  229.       _STATISTICS_WRITING_DATE_UTC-eng: 2018-11-23 10:59:18
  230.       _STATISTICS_TAGS-eng: BPS DURATION NUMBER_OF_FRAMES NUMBER_OF_BYTES SOURCE_ID
  231.     Stream #0:3(eng): Audio: ac3
  232.       48000 Hz, stereo, fltp, 192 kb/s
  233.     Metadata:
  234.       title           : Stereo
  235.       BPS-eng         : 192000
  236.       DURATION-eng    : 00:21:42.624000000
  237.       NUMBER_OF_FRAMES-eng: 40707
  238.       NUMBER_OF_BYTES-eng: 31262976
  239.       SOURCE_ID-eng   : 0182BD
  240.       _STATISTICS_WRITING_APP-eng: MakeMKV v1.12.3 linux(x64-release)
  241.       _STATISTICS_WRITING_DATE_UTC-eng: 2018-11-23 10:59:18
  242.       _STATISTICS_TAGS-eng: BPS DURATION NUMBER_OF_FRAMES NUMBER_OF_BYTES SOURCE_ID
  243.     Stream #0:4(dan): Subtitle: dvd_subtitle (default)
  244.     Metadata:
  245.       BPS-eng         : 2655
  246.       DURATION-eng    : 00:21:34.069866666
  247.       NUMBER_OF_FRAMES-eng: 219
  248.       NUMBER_OF_BYTES-eng: 429624
  249.       SOURCE_ID-eng   : 0120BD
  250.       _STATISTICS_WRITING_APP-eng: MakeMKV v1.12.3 linux(x64-release)
  251.       _STATISTICS_WRITING_DATE_UTC-eng: 2018-11-23 10:59:18
  252.       _STATISTICS_TAGS-eng: BPS DURATION NUMBER_OF_FRAMES NUMBER_OF_BYTES SOURCE_ID
  253.     Stream #0:5(eng): Subtitle: dvd_subtitle
  254.     Metadata:
  255.       BPS-eng         : 3116
  256.       DURATION-eng    : 00:21:31.829866666
  257.       NUMBER_OF_FRAMES-eng: 231
  258.       NUMBER_OF_BYTES-eng: 503256
  259.       SOURCE_ID-eng   : 0121BD
  260.       _STATISTICS_WRITING_APP-eng: MakeMKV v1.12.3 linux(x64-release)
  261.       _STATISTICS_WRITING_DATE_UTC-eng: 2018-11-23 10:59:18
  262.       _STATISTICS_TAGS-eng: BPS DURATION NUMBER_OF_FRAMES NUMBER_OF_BYTES SOURCE_ID
  263.     Stream #0:6(fin): Subtitle: dvd_subtitle
  264.     Metadata:
  265.       BPS-eng         : 2898
  266.       DURATION-eng    : 00:21:34.189866666
  267.       NUMBER_OF_FRAMES-eng: 216
  268.       NUMBER_OF_BYTES-eng: 468920
  269.       SOURCE_ID-eng   : 0122BD
  270.       _STATISTICS_WRITING_APP-eng: MakeMKV v1.12.3 linux(x64-release)
  271.       _STATISTICS_WRITING_DATE_UTC-eng: 2018-11-23 10:59:18
  272.       _STATISTICS_TAGS-eng: BPS DURATION NUMBER_OF_FRAMES NUMBER_OF_BYTES SOURCE_ID
  273.     Stream #0:7(fre): Subtitle: dvd_subtitle
  274.     Metadata:
  275.       BPS-eng         : 3034
  276.       DURATION-eng    : 00:21:34.229866666
  277.       NUMBER_OF_FRAMES-eng: 219
  278.       NUMBER_OF_BYTES-eng: 490964
  279.       SOURCE_ID-eng   : 0123BD
  280.       _STATISTICS_WRITING_APP-eng: MakeMKV v1.12.3 linux(x64-release)
  281.       _STATISTICS_WRITING_DATE_UTC-eng: 2018-11-23 10:59:18
  282.       _STATISTICS_TAGS-eng: BPS DURATION NUMBER_OF_FRAMES NUMBER_OF_BYTES SOURCE_ID
  283.     Stream #0:8(nor): Subtitle: dvd_subtitle
  284.     Metadata:
  285.       BPS-eng         : 2750
  286.       DURATION-eng    : 00:21:34.189866666
  287.       NUMBER_OF_FRAMES-eng: 216
  288.       NUMBER_OF_BYTES-eng: 445036
  289.       SOURCE_ID-eng   : 0124BD
  290.       _STATISTICS_WRITING_APP-eng: MakeMKV v1.12.3 linux(x64-release)
  291.       _STATISTICS_WRITING_DATE_UTC-eng: 2018-11-23 10:59:18
  292.       _STATISTICS_TAGS-eng: BPS DURATION NUMBER_OF_FRAMES NUMBER_OF_BYTES SOURCE_ID
  293.     Stream #0:9(swe): Subtitle: dvd_subtitle
  294.     Metadata:
  295.       BPS-eng         : 2226
  296.       DURATION-eng    : 00:21:34.189866666
  297.       NUMBER_OF_FRAMES-eng: 194
  298.       NUMBER_OF_BYTES-eng: 360124
  299.       SOURCE_ID-eng   : 0125BD
  300.       _STATISTICS_WRITING_APP-eng: MakeMKV v1.12.3 linux(x64-release)
  301.       _STATISTICS_WRITING_DATE_UTC-eng: 2018-11-23 10:59:18
  302.       _STATISTICS_TAGS-eng: BPS DURATION NUMBER_OF_FRAMES NUMBER_OF_BYTES SOURCE_ID
  303.     Stream #0:10(fre): Subtitle: dvd_subtitle
  304.     Metadata:
  305.       BPS-eng         : 172
  306.       DURATION-eng    : 00:21:34.229866666
  307.       NUMBER_OF_FRAMES-eng: 17
  308.       NUMBER_OF_BYTES-eng: 27928
  309.       SOURCE_ID-eng   : 0126BD
  310.       _STATISTICS_WRITING_APP-eng: MakeMKV v1.12.3 linux(x64-release)
  311.       _STATISTICS_WRITING_DATE_UTC-eng: 2018-11-23 10:59:18
  312.       _STATISTICS_TAGS-eng: BPS DURATION NUMBER_OF_FRAMES NUMBER_OF_BYTES SOURCE_ID
  313.     Stream #0:11(eng): Subtitle: dvd_subtitle
  314.     Metadata:
  315.       BPS-eng         : 5470
  316.       DURATION-eng    : 00:21:30.589866666
  317.       NUMBER_OF_FRAMES-eng: 387
  318.       NUMBER_OF_BYTES-eng: 882516
  319.       SOURCE_ID-eng   : 0127BD
  320.       _STATISTICS_WRITING_APP-eng: MakeMKV v1.12.3 linux(x64-release)
  321.       _STATISTICS_WRITING_DATE_UTC-eng: 2018-11-23 10:59:18
  322.       _STATISTICS_TAGS-eng: BPS DURATION NUMBER_OF_FRAMES NUMBER_OF_BYTES SOURCE_ID
  323.     Stream #0:12(fre): Subtitle: dvd_subtitle
  324.     Metadata:
  325.       BPS-eng         : 4655
  326.       DURATION-eng    : 00:21:35.629866666
  327.       NUMBER_OF_FRAMES-eng: 372
  328.       NUMBER_OF_BYTES-eng: 754056
  329.       SOURCE_ID-eng   : 0128BD
  330.       _STATISTICS_WRITING_APP-eng: MakeMKV v1.12.3 linux(x64-release)
  331.       _STATISTICS_WRITING_DATE_UTC-eng: 2018-11-23 10:59:18
  332.       _STATISTICS_TAGS-eng: BPS DURATION NUMBER_OF_FRAMES NUMBER_OF_BYTES SOURCE_ID
  333. [11:09:25] batch: scanning /home/john/Media/Video/TV Shows/Futurama/2001 Series 03/title02.mkv
  334. Input #0, matroska,webm, from '/home/john/Media/Video/TV Shows/Futurama/2001 Series 03/title02.mkv':
  335.   Duration: 00:21:41.96, start: 0.000000, bitrate: N/A
  336.     Chapter #0:0: start 0.080000, end 342.240000
  337.     Metadata:
  338.       title           : Chapter 01
  339.     Chapter #0:1: start 342.240000, end 501.320000
  340.     Metadata:
  341.       title           : Chapter 02
  342.     Chapter #0:2: start 501.320000, end 886.440000
  343.     Metadata:
  344.       title           : Chapter 03
  345.     Chapter #0:3: start 886.440000, end 1065.840000
  346.     Metadata:
  347.       title           : Chapter 04
  348.     Chapter #0:4: start 1065.840000, end 1301.960000
  349.     Metadata:
  350.       title           : Chapter 05
  351.     Stream #0:0(eng): Video: mpeg2video (Main)
  352.       yuv420p, tv, 720x576 [PAR 16:15 DAR 4:3], 7500 kb/s, PAR 16:15 DAR 4:3
  353.       25 fps, 1k tbn
  354.     Metadata:
  355.       BPS-eng         : 5449315
  356.       DURATION-eng    : 00:21:41.960000000
  357.       NUMBER_OF_FRAMES-eng: 32549
  358.       NUMBER_OF_BYTES-eng: 886848780
  359.       SOURCE_ID-eng   : 0100E0
  360.       _STATISTICS_WRITING_APP-eng: MakeMKV v1.12.3 linux(x64-release)
  361.       _STATISTICS_WRITING_DATE_UTC-eng: 2018-11-23 11:00:40
  362.       _STATISTICS_TAGS-eng: BPS DURATION NUMBER_OF_FRAMES NUMBER_OF_BYTES SOURCE_ID
  363.     Stream #0:1(eng): Audio: ac3
  364.       48000 Hz, stereo, fltp, 192 kb/s (default)
  365.     Metadata:
  366.       title           : Stereo
  367.       BPS-eng         : 192000
  368.       DURATION-eng    : 00:21:41.984000000
  369.       NUMBER_OF_FRAMES-eng: 40687
  370.       NUMBER_OF_BYTES-eng: 31247616
  371.       SOURCE_ID-eng   : 0180BD
  372.       _STATISTICS_WRITING_APP-eng: MakeMKV v1.12.3 linux(x64-release)
  373.       _STATISTICS_WRITING_DATE_UTC-eng: 2018-11-23 11:00:40
  374.       _STATISTICS_TAGS-eng: BPS DURATION NUMBER_OF_FRAMES NUMBER_OF_BYTES SOURCE_ID
  375.     Stream #0:2(eng): Audio: ac3
  376.       48000 Hz, stereo, fltp, 192 kb/s
  377.     Metadata:
  378.       title           : Stereo
  379.       BPS-eng         : 192000
  380.       DURATION-eng    : 00:21:42.016000000
  381.       NUMBER_OF_FRAMES-eng: 40688
  382.       NUMBER_OF_BYTES-eng: 31248384
  383.       SOURCE_ID-eng   : 0182BD
  384.       _STATISTICS_WRITING_APP-eng: MakeMKV v1.12.3 linux(x64-release)
  385.       _STATISTICS_WRITING_DATE_UTC-eng: 2018-11-23 11:00:40
  386.       _STATISTICS_TAGS-eng: BPS DURATION NUMBER_OF_FRAMES NUMBER_OF_BYTES SOURCE_ID
  387.     Stream #0:3(dan): Subtitle: dvd_subtitle (default)
  388.     Metadata:
  389.       BPS-eng         : 2754
  390.       DURATION-eng    : 00:21:33.989866666
  391.       NUMBER_OF_FRAMES-eng: 219
  392.       NUMBER_OF_BYTES-eng: 445460
  393.       SOURCE_ID-eng   : 0120BD
  394.       _STATISTICS_WRITING_APP-eng: MakeMKV v1.12.3 linux(x64-release)
  395.       _STATISTICS_WRITING_DATE_UTC-eng: 2018-11-23 11:00:40
  396.       _STATISTICS_TAGS-eng: BPS DURATION NUMBER_OF_FRAMES NUMBER_OF_BYTES SOURCE_ID
  397.     Stream #0:4(eng): Subtitle: dvd_subtitle
  398.     Metadata:
  399.       BPS-eng         : 3367
  400.       DURATION-eng    : 00:21:31.589866666
  401.       NUMBER_OF_FRAMES-eng: 266
  402.       NUMBER_OF_BYTES-eng: 543716
  403.       SOURCE_ID-eng   : 0121BD
  404.       _STATISTICS_WRITING_APP-eng: MakeMKV v1.12.3 linux(x64-release)
  405.       _STATISTICS_WRITING_DATE_UTC-eng: 2018-11-23 11:00:40
  406.       _STATISTICS_TAGS-eng: BPS DURATION NUMBER_OF_FRAMES NUMBER_OF_BYTES SOURCE_ID
  407.     Stream #0:5(fin): Subtitle: dvd_subtitle
  408.     Metadata:
  409.       BPS-eng         : 3017
  410.       DURATION-eng    : 00:21:33.989866666
  411.       NUMBER_OF_FRAMES-eng: 234
  412.       NUMBER_OF_BYTES-eng: 488080
  413.       SOURCE_ID-eng   : 0122BD
  414.       _STATISTICS_WRITING_APP-eng: MakeMKV v1.12.3 linux(x64-release)
  415.       _STATISTICS_WRITING_DATE_UTC-eng: 2018-11-23 11:00:40
  416.       _STATISTICS_TAGS-eng: BPS DURATION NUMBER_OF_FRAMES NUMBER_OF_BYTES SOURCE_ID
  417.     Stream #0:6(fre): Subtitle: dvd_subtitle
  418.     Metadata:
  419.       BPS-eng         : 3194
  420.       DURATION-eng    : 00:21:33.989866666
  421.       NUMBER_OF_FRAMES-eng: 232
  422.       NUMBER_OF_BYTES-eng: 516664
  423.       SOURCE_ID-eng   : 0123BD
  424.       _STATISTICS_WRITING_APP-eng: MakeMKV v1.12.3 linux(x64-release)
  425.       _STATISTICS_WRITING_DATE_UTC-eng: 2018-11-23 11:00:40
  426.       _STATISTICS_TAGS-eng: BPS DURATION NUMBER_OF_FRAMES NUMBER_OF_BYTES SOURCE_ID
  427.     Stream #0:7(nor): Subtitle: dvd_subtitle
  428.     Metadata:
  429.       BPS-eng         : 2918
  430.       DURATION-eng    : 00:21:33.989866666
  431.       NUMBER_OF_FRAMES-eng: 237
  432.       NUMBER_OF_BYTES-eng: 472100
  433.       SOURCE_ID-eng   : 0124BD
  434.       _STATISTICS_WRITING_APP-eng: MakeMKV v1.12.3 linux(x64-release)
  435.       _STATISTICS_WRITING_DATE_UTC-eng: 2018-11-23 11:00:40
  436.       _STATISTICS_TAGS-eng: BPS DURATION NUMBER_OF_FRAMES NUMBER_OF_BYTES SOURCE_ID
  437.     Stream #0:8(swe): Subtitle: dvd_subtitle
  438.     Metadata:
  439.       BPS-eng         : 2837
  440.       DURATION-eng    : 00:21:33.989866666
  441.       NUMBER_OF_FRAMES-eng: 218
  442.       NUMBER_OF_BYTES-eng: 458964
  443.       SOURCE_ID-eng   : 0125BD
  444.       _STATISTICS_WRITING_APP-eng: MakeMKV v1.12.3 linux(x64-release)
  445.       _STATISTICS_WRITING_DATE_UTC-eng: 2018-11-23 11:00:40
  446.       _STATISTICS_TAGS-eng: BPS DURATION NUMBER_OF_FRAMES NUMBER_OF_BYTES SOURCE_ID
  447.     Stream #0:9(eng): Subtitle: dvd_subtitle
  448.     Metadata:
  449.       BPS-eng         : 5224
  450.       DURATION-eng    : 00:21:36.389866666
  451.       NUMBER_OF_FRAMES-eng: 381
  452.       NUMBER_OF_BYTES-eng: 846620
  453.       SOURCE_ID-eng   : 0127BD
  454.       _STATISTICS_WRITING_APP-eng: MakeMKV v1.12.3 linux(x64-release)
  455.       _STATISTICS_WRITING_DATE_UTC-eng: 2018-11-23 11:00:40
  456.       _STATISTICS_TAGS-eng: BPS DURATION NUMBER_OF_FRAMES NUMBER_OF_BYTES SOURCE_ID
  457.     Stream #0:10(fre): Subtitle: dvd_subtitle
  458.     Metadata:
  459.       BPS-eng         : 4072
  460.       DURATION-eng    : 00:21:36.389866666
  461.       NUMBER_OF_FRAMES-eng: 344
  462.       NUMBER_OF_BYTES-eng: 659972
  463.       SOURCE_ID-eng   : 0128BD
  464.       _STATISTICS_WRITING_APP-eng: MakeMKV v1.12.3 linux(x64-release)
  465.       _STATISTICS_WRITING_DATE_UTC-eng: 2018-11-23 11:00:40
  466.       _STATISTICS_TAGS-eng: BPS DURATION NUMBER_OF_FRAMES NUMBER_OF_BYTES SOURCE_ID
  467. [11:09:25] batch: scanning /home/john/Media/Video/TV Shows/Futurama/2001 Series 03/title03.mkv
  468. Input #0, matroska,webm, from '/home/john/Media/Video/TV Shows/Futurama/2001 Series 03/title03.mkv':
  469.   Duration: 00:22:12.60, start: 0.000000, bitrate: N/A
  470.     Chapter #0:0: start 0.080000, end 333.880000
  471.     Metadata:
  472.       title           : Chapter 01
  473.     Chapter #0:1: start 333.880000, end 465.800000
  474.     Metadata:
  475.       title           : Chapter 02
  476.     Chapter #0:2: start 465.800000, end 724.800000
  477.     Metadata:
  478.       title           : Chapter 03
  479.     Chapter #0:3: start 724.800000, end 912.880000
  480.     Metadata:
  481.       title           : Chapter 04
  482.     Chapter #0:4: start 912.880000, end 1332.608000
  483.     Metadata:
  484.       title           : Chapter 05
  485.     Stream #0:0(eng): Video: mpeg2video (Main)
  486.       yuv420p, tv, 720x576 [PAR 16:15 DAR 4:3], 7500 kb/s, PAR 16:15 DAR 4:3
  487.       25 fps, 1k tbn
  488.     Metadata:
  489.       BPS-eng         : 5386194
  490.       DURATION-eng    : 00:22:12.600000000
  491.       NUMBER_OF_FRAMES-eng: 33315
  492.       NUMBER_OF_BYTES-eng: 897205376
  493.       SOURCE_ID-eng   : 0100E0
  494.       _STATISTICS_WRITING_APP-eng: MakeMKV v1.12.3 linux(x64-release)
  495.       _STATISTICS_WRITING_DATE_UTC-eng: 2018-11-23 11:01:51
  496.       _STATISTICS_TAGS-eng: BPS DURATION NUMBER_OF_FRAMES NUMBER_OF_BYTES SOURCE_ID
  497.     Stream #0:1(eng): Audio: ac3
  498.       48000 Hz, stereo, fltp, 192 kb/s (default)
  499.     Metadata:
  500.       title           : Stereo
  501.       BPS-eng         : 192000
  502.       DURATION-eng    : 00:22:02.400000000
  503.       NUMBER_OF_FRAMES-eng: 41325
  504.       NUMBER_OF_BYTES-eng: 31737600
  505.       SOURCE_ID-eng   : 0180BD
  506.       _STATISTICS_WRITING_APP-eng: MakeMKV v1.12.3 linux(x64-release)
  507.       _STATISTICS_WRITING_DATE_UTC-eng: 2018-11-23 11:01:51
  508.       _STATISTICS_TAGS-eng: BPS DURATION NUMBER_OF_FRAMES NUMBER_OF_BYTES SOURCE_ID
  509.     Stream #0:2(fre): Audio: ac3
  510.       48000 Hz, stereo, fltp, 192 kb/s
  511.     Metadata:
  512.       title           : Stereo
  513.       BPS-eng         : 192000
  514.       DURATION-eng    : 00:22:12.576000000
  515.       NUMBER_OF_FRAMES-eng: 41643
  516.       NUMBER_OF_BYTES-eng: 31981824
  517.       SOURCE_ID-eng   : 0181BD
  518.       _STATISTICS_WRITING_APP-eng: MakeMKV v1.12.3 linux(x64-release)
  519.       _STATISTICS_WRITING_DATE_UTC-eng: 2018-11-23 11:01:51
  520.       _STATISTICS_TAGS-eng: BPS DURATION NUMBER_OF_FRAMES NUMBER_OF_BYTES SOURCE_ID
  521.     Stream #0:3(eng): Audio: ac3
  522.       48000 Hz, stereo, fltp, 192 kb/s
  523.     Metadata:
  524.       title           : Stereo
  525.       BPS-eng         : 192000
  526.       DURATION-eng    : 00:22:12.608000000
  527.       NUMBER_OF_FRAMES-eng: 41644
  528.       NUMBER_OF_BYTES-eng: 31982592
  529.       SOURCE_ID-eng   : 0182BD
  530.       _STATISTICS_WRITING_APP-eng: MakeMKV v1.12.3 linux(x64-release)
  531.       _STATISTICS_WRITING_DATE_UTC-eng: 2018-11-23 11:01:51
  532.       _STATISTICS_TAGS-eng: BPS DURATION NUMBER_OF_FRAMES NUMBER_OF_BYTES SOURCE_ID
  533.     Stream #0:4(dan): Subtitle: dvd_subtitle (default)
  534.     Metadata:
  535.       BPS-eng         : 2855
  536.       DURATION-eng    : 00:21:34.149866666
  537.       NUMBER_OF_FRAMES-eng: 245
  538.       NUMBER_OF_BYTES-eng: 461956
  539.       SOURCE_ID-eng   : 0120BD
  540.       _STATISTICS_WRITING_APP-eng: MakeMKV v1.12.3 linux(x64-release)
  541.       _STATISTICS_WRITING_DATE_UTC-eng: 2018-11-23 11:01:51
  542.       _STATISTICS_TAGS-eng: BPS DURATION NUMBER_OF_FRAMES NUMBER_OF_BYTES SOURCE_ID
  543.     Stream #0:5(eng): Subtitle: dvd_subtitle
  544.     Metadata:
  545.       BPS-eng         : 3409
  546.       DURATION-eng    : 00:21:31.629866666
  547.       NUMBER_OF_FRAMES-eng: 252
  548.       NUMBER_OF_BYTES-eng: 550544
  549.       SOURCE_ID-eng   : 0121BD
  550.       _STATISTICS_WRITING_APP-eng: MakeMKV v1.12.3 linux(x64-release)
  551.       _STATISTICS_WRITING_DATE_UTC-eng: 2018-11-23 11:01:51
  552.       _STATISTICS_TAGS-eng: BPS DURATION NUMBER_OF_FRAMES NUMBER_OF_BYTES SOURCE_ID
  553.     Stream #0:6(fin): Subtitle: dvd_subtitle
  554.     Metadata:
  555.       BPS-eng         : 3077
  556.       DURATION-eng    : 00:21:34.149866666
  557.       NUMBER_OF_FRAMES-eng: 239
  558.       NUMBER_OF_BYTES-eng: 497776
  559.       SOURCE_ID-eng   : 0122BD
  560.       _STATISTICS_WRITING_APP-eng: MakeMKV v1.12.3 linux(x64-release)
  561.       _STATISTICS_WRITING_DATE_UTC-eng: 2018-11-23 11:01:51
  562.       _STATISTICS_TAGS-eng: BPS DURATION NUMBER_OF_FRAMES NUMBER_OF_BYTES SOURCE_ID
  563.     Stream #0:7(fre): Subtitle: dvd_subtitle
  564.     Metadata:
  565.       BPS-eng         : 3342
  566.       DURATION-eng    : 00:21:34.789866666
  567.       NUMBER_OF_FRAMES-eng: 250
  568.       NUMBER_OF_BYTES-eng: 541024
  569.       SOURCE_ID-eng   : 0123BD
  570.       _STATISTICS_WRITING_APP-eng: MakeMKV v1.12.3 linux(x64-release)
  571.       _STATISTICS_WRITING_DATE_UTC-eng: 2018-11-23 11:01:51
  572.       _STATISTICS_TAGS-eng: BPS DURATION NUMBER_OF_FRAMES NUMBER_OF_BYTES SOURCE_ID
  573.     Stream #0:8(nor): Subtitle: dvd_subtitle
  574.     Metadata:
  575.       BPS-eng         : 3176
  576.       DURATION-eng    : 00:21:34.149866666
  577.       NUMBER_OF_FRAMES-eng: 246
  578.       NUMBER_OF_BYTES-eng: 513900
  579.       SOURCE_ID-eng   : 0124BD
  580.       _STATISTICS_WRITING_APP-eng: MakeMKV v1.12.3 linux(x64-release)
  581.       _STATISTICS_WRITING_DATE_UTC-eng: 2018-11-23 11:01:51
  582.       _STATISTICS_TAGS-eng: BPS DURATION NUMBER_OF_FRAMES NUMBER_OF_BYTES SOURCE_ID
  583.     Stream #0:9(swe): Subtitle: dvd_subtitle
  584.     Metadata:
  585.       BPS-eng         : 2592
  586.       DURATION-eng    : 00:21:34.149866666
  587.       NUMBER_OF_FRAMES-eng: 229
  588.       NUMBER_OF_BYTES-eng: 419424
  589.       SOURCE_ID-eng   : 0125BD
  590.       _STATISTICS_WRITING_APP-eng: MakeMKV v1.12.3 linux(x64-release)
  591.       _STATISTICS_WRITING_DATE_UTC-eng: 2018-11-23 11:01:51
  592.       _STATISTICS_TAGS-eng: BPS DURATION NUMBER_OF_FRAMES NUMBER_OF_BYTES SOURCE_ID
  593.     Stream #0:10(fre): Subtitle: dvd_subtitle
  594.     Metadata:
  595.       BPS-eng         : 160
  596.       DURATION-eng    : 00:21:34.789866666
  597.       NUMBER_OF_FRAMES-eng: 17
  598.       NUMBER_OF_BYTES-eng: 25984
  599.       SOURCE_ID-eng   : 0126BD
  600.       _STATISTICS_WRITING_APP-eng: MakeMKV v1.12.3 linux(x64-release)
  601.       _STATISTICS_WRITING_DATE_UTC-eng: 2018-11-23 11:01:51
  602.       _STATISTICS_TAGS-eng: BPS DURATION NUMBER_OF_FRAMES NUMBER_OF_BYTES SOURCE_ID
  603.     Stream #0:11(eng): Subtitle: dvd_subtitle
  604.     Metadata:
  605.       BPS-eng         : 5192
  606.       DURATION-eng    : 00:22:09.629866666
  607.       NUMBER_OF_FRAMES-eng: 410
  608.       NUMBER_OF_BYTES-eng: 863044
  609.       SOURCE_ID-eng   : 0127BD
  610.       _STATISTICS_WRITING_APP-eng: MakeMKV v1.12.3 linux(x64-release)
  611.       _STATISTICS_WRITING_DATE_UTC-eng: 2018-11-23 11:01:51
  612.       _STATISTICS_TAGS-eng: BPS DURATION NUMBER_OF_FRAMES NUMBER_OF_BYTES SOURCE_ID
  613.     Stream #0:12(fre): Subtitle: dvd_subtitle
  614.     Metadata:
  615.       BPS-eng         : 4280
  616.       DURATION-eng    : 00:22:09.629866666
  617.       NUMBER_OF_FRAMES-eng: 371
  618.       NUMBER_OF_BYTES-eng: 711392
  619.       SOURCE_ID-eng   : 0128BD
  620.       _STATISTICS_WRITING_APP-eng: MakeMKV v1.12.3 linux(x64-release)
  621.       _STATISTICS_WRITING_DATE_UTC-eng: 2018-11-23 11:01:51
  622.       _STATISTICS_TAGS-eng: BPS DURATION NUMBER_OF_FRAMES NUMBER_OF_BYTES SOURCE_ID
  623. [11:09:25] batch: scanning /home/john/Media/Video/TV Shows/Futurama/2001 Series 03/title04.mkv
  624. Input #0, matroska,webm, from '/home/john/Media/Video/TV Shows/Futurama/2001 Series 03/title04.mkv':
  625.   Duration: 00:21:41.02, start: 0.000000, bitrate: N/A
  626.     Chapter #0:0: start 0.080000, end 326.000000
  627.     Metadata:
  628.       title           : Chapter 01
  629.     Chapter #0:1: start 326.000000, end 632.280000
  630.     Metadata:
  631.       title           : Chapter 02
  632.     Chapter #0:2: start 632.280000, end 914.000000
  633.     Metadata:
  634.       title           : Chapter 03
  635.     Chapter #0:3: start 914.000000, end 1028.800000
  636.     Metadata:
  637.       title           : Chapter 04
  638.     Chapter #0:4: start 1028.800000, end 1301.024000
  639.     Metadata:
  640.       title           : Chapter 05
  641.     Stream #0:0(eng): Video: mpeg2video (Main)
  642.       yuv420p, tv, 720x576 [PAR 16:15 DAR 4:3], 7500 kb/s, PAR 16:15 DAR 4:3
  643.       25 fps, 1k tbn
  644.     Metadata:
  645.       BPS-eng         : 5464167
  646.       DURATION-eng    : 00:21:41.000000000
  647.       NUMBER_OF_FRAMES-eng: 32525
  648.       NUMBER_OF_BYTES-eng: 888610312
  649.       SOURCE_ID-eng   : 0100E0
  650.       _STATISTICS_WRITING_APP-eng: MakeMKV v1.12.3 linux(x64-release)
  651.       _STATISTICS_WRITING_DATE_UTC-eng: 2018-11-23 11:02:59
  652.       _STATISTICS_TAGS-eng: BPS DURATION NUMBER_OF_FRAMES NUMBER_OF_BYTES SOURCE_ID
  653.     Stream #0:1(eng): Audio: ac3
  654.       48000 Hz, stereo, fltp, 192 kb/s (default)
  655.     Metadata:
  656.       title           : Stereo
  657.       BPS-eng         : 192000
  658.       DURATION-eng    : 00:21:40.992000000
  659.       NUMBER_OF_FRAMES-eng: 40656
  660.       NUMBER_OF_BYTES-eng: 31223808
  661.       SOURCE_ID-eng   : 0180BD
  662.       _STATISTICS_WRITING_APP-eng: MakeMKV v1.12.3 linux(x64-release)
  663.       _STATISTICS_WRITING_DATE_UTC-eng: 2018-11-23 11:02:59
  664.       _STATISTICS_TAGS-eng: BPS DURATION NUMBER_OF_FRAMES NUMBER_OF_BYTES SOURCE_ID
  665.     Stream #0:2(fre): Audio: ac3
  666.       48000 Hz, stereo, fltp, 192 kb/s
  667.     Metadata:
  668.       title           : Stereo
  669.       BPS-eng         : 192000
  670.       DURATION-eng    : 00:21:40.992000000
  671.       NUMBER_OF_FRAMES-eng: 40656
  672.       NUMBER_OF_BYTES-eng: 31223808
  673.       SOURCE_ID-eng   : 0181BD
  674.       _STATISTICS_WRITING_APP-eng: MakeMKV v1.12.3 linux(x64-release)
  675.       _STATISTICS_WRITING_DATE_UTC-eng: 2018-11-23 11:02:59
  676.       _STATISTICS_TAGS-eng: BPS DURATION NUMBER_OF_FRAMES NUMBER_OF_BYTES SOURCE_ID
  677.     Stream #0:3(eng): Audio: ac3
  678.       48000 Hz, stereo, fltp, 192 kb/s
  679.     Metadata:
  680.       title           : Stereo
  681.       BPS-eng         : 192000
  682.       DURATION-eng    : 00:21:41.024000000
  683.       NUMBER_OF_FRAMES-eng: 40657
  684.       NUMBER_OF_BYTES-eng: 31224576
  685.       SOURCE_ID-eng   : 0182BD
  686.       _STATISTICS_WRITING_APP-eng: MakeMKV v1.12.3 linux(x64-release)
  687.       _STATISTICS_WRITING_DATE_UTC-eng: 2018-11-23 11:02:59
  688.       _STATISTICS_TAGS-eng: BPS DURATION NUMBER_OF_FRAMES NUMBER_OF_BYTES SOURCE_ID
  689.     Stream #0:4(dan): Subtitle: dvd_subtitle (default)
  690.     Metadata:
  691.       BPS-eng         : 2745
  692.       DURATION-eng    : 00:21:25.829866666
  693.       NUMBER_OF_FRAMES-eng: 208
  694.       NUMBER_OF_BYTES-eng: 441292
  695.       SOURCE_ID-eng   : 0120BD
  696.       _STATISTICS_WRITING_APP-eng: MakeMKV v1.12.3 linux(x64-release)
  697.       _STATISTICS_WRITING_DATE_UTC-eng: 2018-11-23 11:02:59
  698.       _STATISTICS_TAGS-eng: BPS DURATION NUMBER_OF_FRAMES NUMBER_OF_BYTES SOURCE_ID
  699.     Stream #0:5(eng): Subtitle: dvd_subtitle
  700.     Metadata:
  701.       BPS-eng         : 3258
  702.       DURATION-eng    : 00:21:25.829866666
  703.       NUMBER_OF_FRAMES-eng: 254
  704.       NUMBER_OF_BYTES-eng: 523736
  705.       SOURCE_ID-eng   : 0121BD
  706.       _STATISTICS_WRITING_APP-eng: MakeMKV v1.12.3 linux(x64-release)
  707.       _STATISTICS_WRITING_DATE_UTC-eng: 2018-11-23 11:02:59
  708.       _STATISTICS_TAGS-eng: BPS DURATION NUMBER_OF_FRAMES NUMBER_OF_BYTES SOURCE_ID
  709.     Stream #0:6(fin): Subtitle: dvd_subtitle
  710.     Metadata:
  711.       BPS-eng         : 3101
  712.       DURATION-eng    : 00:21:29.589866666
  713.       NUMBER_OF_FRAMES-eng: 232
  714.       NUMBER_OF_BYTES-eng: 499972
  715.       SOURCE_ID-eng   : 0122BD
  716.       _STATISTICS_WRITING_APP-eng: MakeMKV v1.12.3 linux(x64-release)
  717.       _STATISTICS_WRITING_DATE_UTC-eng: 2018-11-23 11:02:59
  718.       _STATISTICS_TAGS-eng: BPS DURATION NUMBER_OF_FRAMES NUMBER_OF_BYTES SOURCE_ID
  719.     Stream #0:7(fre): Subtitle: dvd_subtitle
  720.     Metadata:
  721.       BPS-eng         : 3346
  722.       DURATION-eng    : 00:21:28.269866666
  723.       NUMBER_OF_FRAMES-eng: 239
  724.       NUMBER_OF_BYTES-eng: 538832
  725.       SOURCE_ID-eng   : 0123BD
  726.       _STATISTICS_WRITING_APP-eng: MakeMKV v1.12.3 linux(x64-release)
  727.       _STATISTICS_WRITING_DATE_UTC-eng: 2018-11-23 11:02:59
  728.       _STATISTICS_TAGS-eng: BPS DURATION NUMBER_OF_FRAMES NUMBER_OF_BYTES SOURCE_ID
  729.     Stream #0:8(nor): Subtitle: dvd_subtitle
  730.     Metadata:
  731.       BPS-eng         : 2937
  732.       DURATION-eng    : 00:21:29.589866666
  733.       NUMBER_OF_FRAMES-eng: 240
  734.       NUMBER_OF_BYTES-eng: 473596
  735.       SOURCE_ID-eng   : 0124BD
  736.       _STATISTICS_WRITING_APP-eng: MakeMKV v1.12.3 linux(x64-release)
  737.       _STATISTICS_WRITING_DATE_UTC-eng: 2018-11-23 11:02:59
  738.       _STATISTICS_TAGS-eng: BPS DURATION NUMBER_OF_FRAMES NUMBER_OF_BYTES SOURCE_ID
  739.     Stream #0:9(swe): Subtitle: dvd_subtitle
  740.     Metadata:
  741.       BPS-eng         : 2434
  742.       DURATION-eng    : 00:21:29.589866666
  743.       NUMBER_OF_FRAMES-eng: 209
  744.       NUMBER_OF_BYTES-eng: 392500
  745.       SOURCE_ID-eng   : 0125BD
  746.       _STATISTICS_WRITING_APP-eng: MakeMKV v1.12.3 linux(x64-release)
  747.       _STATISTICS_WRITING_DATE_UTC-eng: 2018-11-23 11:02:59
  748.       _STATISTICS_TAGS-eng: BPS DURATION NUMBER_OF_FRAMES NUMBER_OF_BYTES SOURCE_ID
  749.     Stream #0:10(fre): Subtitle: dvd_subtitle
  750.     Metadata:
  751.       BPS-eng         : 296
  752.       DURATION-eng    : 00:21:28.269866666
  753.       NUMBER_OF_FRAMES-eng: 26
  754.       NUMBER_OF_BYTES-eng: 47732
  755.       SOURCE_ID-eng   : 0126BD
  756.       _STATISTICS_WRITING_APP-eng: MakeMKV v1.12.3 linux(x64-release)
  757.       _STATISTICS_WRITING_DATE_UTC-eng: 2018-11-23 11:02:59
  758.       _STATISTICS_TAGS-eng: BPS DURATION NUMBER_OF_FRAMES NUMBER_OF_BYTES SOURCE_ID
  759.     Stream #0:11(eng): Subtitle: dvd_subtitle
  760.     Metadata:
  761.       BPS-eng         : 4412
  762.       DURATION-eng    : 00:21:35.309866666
  763.       NUMBER_OF_FRAMES-eng: 337
  764.       NUMBER_OF_BYTES-eng: 714388
  765.       SOURCE_ID-eng   : 0127BD
  766.       _STATISTICS_WRITING_APP-eng: MakeMKV v1.12.3 linux(x64-release)
  767.       _STATISTICS_WRITING_DATE_UTC-eng: 2018-11-23 11:02:59
  768.       _STATISTICS_TAGS-eng: BPS DURATION NUMBER_OF_FRAMES NUMBER_OF_BYTES SOURCE_ID
  769.     Stream #0:12(fre): Subtitle: dvd_subtitle
  770.     Metadata:
  771.       BPS-eng         : 3834
  772.       DURATION-eng    : 00:21:35.069866666
  773.       NUMBER_OF_FRAMES-eng: 302
  774.       NUMBER_OF_BYTES-eng: 620692
  775.       SOURCE_ID-eng   : 0128BD
  776.       _STATISTICS_WRITING_APP-eng: MakeMKV v1.12.3 linux(x64-release)
  777.       _STATISTICS_WRITING_DATE_UTC-eng: 2018-11-23 11:02:59
  778.       _STATISTICS_TAGS-eng: BPS DURATION NUMBER_OF_FRAMES NUMBER_OF_BYTES SOURCE_ID
  779. [11:09:25] batch: scanning /home/john/Media/Video/TV Shows/Futurama/2001 Series 03/title05.mkv
  780. Input #0, matroska,webm, from '/home/john/Media/Video/TV Shows/Futurama/2001 Series 03/title05.mkv':
  781.   Duration: 00:21:42.00, start: 0.000000, bitrate: N/A
  782.     Chapter #0:0: start 0.080000, end 211.440000
  783.     Metadata:
  784.       title           : Chapter 01
  785.     Chapter #0:1: start 211.440000, end 395.960000
  786.     Metadata:
  787.       title           : Chapter 02
  788.     Chapter #0:2: start 395.960000, end 690.280000
  789.     Metadata:
  790.       title           : Chapter 03
  791.     Chapter #0:3: start 690.280000, end 924.200000
  792.     Metadata:
  793.       title           : Chapter 04
  794.     Chapter #0:4: start 924.200000, end 1302.000000
  795.     Metadata:
  796.       title           : Chapter 05
  797.     Stream #0:0(eng): Video: mpeg2video (Main)
  798.       yuv420p, tv, 720x576 [PAR 16:15 DAR 4:3], 7500 kb/s, PAR 16:15 DAR 4:3
  799.       25 fps, 1k tbn
  800.     Metadata:
  801.       BPS-eng         : 5455302
  802.       DURATION-eng    : 00:21:42.000000000
  803.       NUMBER_OF_FRAMES-eng: 32550
  804.       NUMBER_OF_BYTES-eng: 887850404
  805.       SOURCE_ID-eng   : 0100E0
  806.       _STATISTICS_WRITING_APP-eng: MakeMKV v1.12.3 linux(x64-release)
  807.       _STATISTICS_WRITING_DATE_UTC-eng: 2018-11-23 11:04:09
  808.       _STATISTICS_TAGS-eng: BPS DURATION NUMBER_OF_FRAMES NUMBER_OF_BYTES SOURCE_ID
  809.     Stream #0:1(eng): Audio: ac3
  810.       48000 Hz, stereo, fltp, 192 kb/s (default)
  811.     Metadata:
  812.       title           : Stereo
  813.       BPS-eng         : 192000
  814.       DURATION-eng    : 00:21:41.984000000
  815.       NUMBER_OF_FRAMES-eng: 40687
  816.       NUMBER_OF_BYTES-eng: 31247616
  817.       SOURCE_ID-eng   : 0180BD
  818.       _STATISTICS_WRITING_APP-eng: MakeMKV v1.12.3 linux(x64-release)
  819.       _STATISTICS_WRITING_DATE_UTC-eng: 2018-11-23 11:04:09
  820.       _STATISTICS_TAGS-eng: BPS DURATION NUMBER_OF_FRAMES NUMBER_OF_BYTES SOURCE_ID
  821.     Stream #0:2(fre): Audio: ac3
  822.       48000 Hz, stereo, fltp, 192 kb/s
  823.     Metadata:
  824.       title           : Stereo
  825.       BPS-eng         : 192000
  826.       DURATION-eng    : 00:21:41.984000000
  827.       NUMBER_OF_FRAMES-eng: 40687
  828.       NUMBER_OF_BYTES-eng: 31247616
  829.       SOURCE_ID-eng   : 0181BD
  830.       _STATISTICS_WRITING_APP-eng: MakeMKV v1.12.3 linux(x64-release)
  831.       _STATISTICS_WRITING_DATE_UTC-eng: 2018-11-23 11:04:09
  832.       _STATISTICS_TAGS-eng: BPS DURATION NUMBER_OF_FRAMES NUMBER_OF_BYTES SOURCE_ID
  833.     Stream #0:3(eng): Audio: ac3
  834.       48000 Hz, stereo, fltp, 192 kb/s
  835.     Metadata:
  836.       title           : Stereo
  837.       BPS-eng         : 192000
  838.       DURATION-eng    : 00:21:42.016000000
  839.       NUMBER_OF_FRAMES-eng: 40688
  840.       NUMBER_OF_BYTES-eng: 31248384
  841.       SOURCE_ID-eng   : 0182BD
  842.       _STATISTICS_WRITING_APP-eng: MakeMKV v1.12.3 linux(x64-release)
  843.       _STATISTICS_WRITING_DATE_UTC-eng: 2018-11-23 11:04:09
  844.       _STATISTICS_TAGS-eng: BPS DURATION NUMBER_OF_FRAMES NUMBER_OF_BYTES SOURCE_ID
  845.     Stream #0:4(dan): Subtitle: dvd_subtitle (default)
  846.     Metadata:
  847.       BPS-eng         : 2546
  848.       DURATION-eng    : 00:21:33.589866666
  849.       NUMBER_OF_FRAMES-eng: 211
  850.       NUMBER_OF_BYTES-eng: 411784
  851.       SOURCE_ID-eng   : 0120BD
  852.       _STATISTICS_WRITING_APP-eng: MakeMKV v1.12.3 linux(x64-release)
  853.       _STATISTICS_WRITING_DATE_UTC-eng: 2018-11-23 11:04:09
  854.       _STATISTICS_TAGS-eng: BPS DURATION NUMBER_OF_FRAMES NUMBER_OF_BYTES SOURCE_ID
  855.     Stream #0:5(eng): Subtitle: dvd_subtitle
  856.     Metadata:
  857.       BPS-eng         : 3532
  858.       DURATION-eng    : 00:21:31.389866666
  859.       NUMBER_OF_FRAMES-eng: 279
  860.       NUMBER_OF_BYTES-eng: 570304
  861.       SOURCE_ID-eng   : 0121BD
  862.       _STATISTICS_WRITING_APP-eng: MakeMKV v1.12.3 linux(x64-release)
  863.       _STATISTICS_WRITING_DATE_UTC-eng: 2018-11-23 11:04:09
  864.       _STATISTICS_TAGS-eng: BPS DURATION NUMBER_OF_FRAMES NUMBER_OF_BYTES SOURCE_ID
  865.     Stream #0:6(fin): Subtitle: dvd_subtitle
  866.     Metadata:
  867.       BPS-eng         : 2926
  868.       DURATION-eng    : 00:21:33.589866666
  869.       NUMBER_OF_FRAMES-eng: 219
  870.       NUMBER_OF_BYTES-eng: 473140
  871.       SOURCE_ID-eng   : 0122BD
  872.       _STATISTICS_WRITING_APP-eng: MakeMKV v1.12.3 linux(x64-release)
  873.       _STATISTICS_WRITING_DATE_UTC-eng: 2018-11-23 11:04:09
  874.       _STATISTICS_TAGS-eng: BPS DURATION NUMBER_OF_FRAMES NUMBER_OF_BYTES SOURCE_ID
  875.     Stream #0:7(fre): Subtitle: dvd_subtitle
  876.     Metadata:
  877.       BPS-eng         : 3315
  878.       DURATION-eng    : 00:21:34.549866666
  879.       NUMBER_OF_FRAMES-eng: 252
  880.       NUMBER_OF_BYTES-eng: 536524
  881.       SOURCE_ID-eng   : 0123BD
  882.       _STATISTICS_WRITING_APP-eng: MakeMKV v1.12.3 linux(x64-release)
  883.       _STATISTICS_WRITING_DATE_UTC-eng: 2018-11-23 11:04:09
  884.       _STATISTICS_TAGS-eng: BPS DURATION NUMBER_OF_FRAMES NUMBER_OF_BYTES SOURCE_ID
  885.     Stream #0:8(nor): Subtitle: dvd_subtitle
  886.     Metadata:
  887.       BPS-eng         : 2553
  888.       DURATION-eng    : 00:21:33.589866666
  889.       NUMBER_OF_FRAMES-eng: 211
  890.       NUMBER_OF_BYTES-eng: 412860
  891.       SOURCE_ID-eng   : 0124BD
  892.       _STATISTICS_WRITING_APP-eng: MakeMKV v1.12.3 linux(x64-release)
  893.       _STATISTICS_WRITING_DATE_UTC-eng: 2018-11-23 11:04:09
  894.       _STATISTICS_TAGS-eng: BPS DURATION NUMBER_OF_FRAMES NUMBER_OF_BYTES SOURCE_ID
  895.     Stream #0:9(swe): Subtitle: dvd_subtitle
  896.     Metadata:
  897.       BPS-eng         : 2494
  898.       DURATION-eng    : 00:21:33.589866666
  899.       NUMBER_OF_FRAMES-eng: 211
  900.       NUMBER_OF_BYTES-eng: 403376
  901.       SOURCE_ID-eng   : 0125BD
  902.       _STATISTICS_WRITING_APP-eng: MakeMKV v1.12.3 linux(x64-release)
  903.       _STATISTICS_WRITING_DATE_UTC-eng: 2018-11-23 11:04:09
  904.       _STATISTICS_TAGS-eng: BPS DURATION NUMBER_OF_FRAMES NUMBER_OF_BYTES SOURCE_ID
  905.     Stream #0:10(fre): Subtitle: dvd_subtitle
  906.     Metadata:
  907.       BPS-eng         : 95
  908.       DURATION-eng    : 00:21:34.549866666
  909.       NUMBER_OF_FRAMES-eng: 11
  910.       NUMBER_OF_BYTES-eng: 15412
  911.       SOURCE_ID-eng   : 0126BD
  912.       _STATISTICS_WRITING_APP-eng: MakeMKV v1.12.3 linux(x64-release)
  913.       _STATISTICS_WRITING_DATE_UTC-eng: 2018-11-23 11:04:09
  914.       _STATISTICS_TAGS-eng: BPS DURATION NUMBER_OF_FRAMES NUMBER_OF_BYTES SOURCE_ID
  915.     Stream #0:11(eng): Subtitle: dvd_subtitle
  916.     Metadata:
  917.       BPS-eng         : 4921
  918.       DURATION-eng    : 00:21:36.629866666
  919.       NUMBER_OF_FRAMES-eng: 344
  920.       NUMBER_OF_BYTES-eng: 797732
  921.       SOURCE_ID-eng   : 0127BD
  922.       _STATISTICS_WRITING_APP-eng: MakeMKV v1.12.3 linux(x64-release)
  923.       _STATISTICS_WRITING_DATE_UTC-eng: 2018-11-23 11:04:09
  924.       _STATISTICS_TAGS-eng: BPS DURATION NUMBER_OF_FRAMES NUMBER_OF_BYTES SOURCE_ID
  925.     Stream #0:12(fre): Subtitle: dvd_subtitle
  926.     Metadata:
  927.       BPS-eng         : 4113
  928.       DURATION-eng    : 00:21:36.629866666
  929.       NUMBER_OF_FRAMES-eng: 316
  930.       NUMBER_OF_BYTES-eng: 666768
  931.       SOURCE_ID-eng   : 0128BD
  932.       _STATISTICS_WRITING_APP-eng: MakeMKV v1.12.3 linux(x64-release)
  933.       _STATISTICS_WRITING_DATE_UTC-eng: 2018-11-23 11:04:09
  934.       _STATISTICS_TAGS-eng: BPS DURATION NUMBER_OF_FRAMES NUMBER_OF_BYTES SOURCE_ID
  935. [11:09:25] scan: decoding previews for title 1 (/home/john/Media/Video/TV Shows/Futurama/2001 Series 03/title00.mkv)
  936. [11:09:25] scan: audio 0x1: ac3, rate=48000Hz, bitrate=192000 English (AC3) (2.0 ch) (Dolby Surround)
  937. [11:09:25] scan: audio 0x2: ac3, rate=48000Hz, bitrate=192000 Francais (AC3) (2.0 ch) (Dolby Surround)
  938. [11:09:25] scan: audio 0x3: ac3, rate=48000Hz, bitrate=192000 English (AC3) (2.0 ch) (Dolby Surround)
  939. [11:09:25] scan: 10 previews, 720x576, 25.000 fps, autocrop = 0/0/0/2, aspect 4:3, PAR 16:15
  940. [11:09:25] scan: decoding previews for title 2 (/home/john/Media/Video/TV Shows/Futurama/2001 Series 03/title01.mkv)
  941. [11:09:25] scan: audio 0x1: ac3, rate=48000Hz, bitrate=192000 English (AC3) (2.0 ch) (Dolby Surround)
  942. [11:09:25] scan: audio 0x2: ac3, rate=48000Hz, bitrate=192000 Francais (AC3) (2.0 ch) (Dolby Surround)
  943. [11:09:25] scan: audio 0x3: ac3, rate=48000Hz, bitrate=192000 English (AC3) (2.0 ch) (Dolby Surround)
  944. [11:09:25] scan: 10 previews, 720x576, 25.000 fps, autocrop = 0/0/2/0, aspect 4:3, PAR 16:15
  945. [11:09:25] scan: decoding previews for title 3 (/home/john/Media/Video/TV Shows/Futurama/2001 Series 03/title02.mkv)
  946. [11:09:25] scan: audio 0x1: ac3, rate=48000Hz, bitrate=192000 English (AC3) (2.0 ch) (Dolby Surround)
  947. [11:09:25] scan: audio 0x2: ac3, rate=48000Hz, bitrate=192000 English (AC3) (2.0 ch) (Dolby Surround)
  948. [11:09:26] scan: 10 previews, 720x576, 25.000 fps, autocrop = 0/0/0/0, aspect 4:3, PAR 16:15
  949. [11:09:26] scan: decoding previews for title 4 (/home/john/Media/Video/TV Shows/Futurama/2001 Series 03/title03.mkv)
  950. [11:09:26] scan: audio 0x1: ac3, rate=48000Hz, bitrate=192000 English (AC3) (2.0 ch) (Dolby Surround)
  951. [11:09:26] scan: audio 0x2: ac3, rate=48000Hz, bitrate=192000 Francais (AC3) (2.0 ch) (Dolby Surround)
  952. [11:09:26] scan: audio 0x3: ac3, rate=48000Hz, bitrate=192000 English (AC3) (2.0 ch) (Dolby Surround)
  953. [11:09:26] scan: 10 previews, 720x576, 25.000 fps, autocrop = 0/0/0/0, aspect 4:3, PAR 16:15
  954. [11:09:26] scan: decoding previews for title 5 (/home/john/Media/Video/TV Shows/Futurama/2001 Series 03/title04.mkv)
  955. [11:09:26] scan: audio 0x1: ac3, rate=48000Hz, bitrate=192000 English (AC3) (2.0 ch) (Dolby Surround)
  956. [11:09:26] scan: audio 0x2: ac3, rate=48000Hz, bitrate=192000 Francais (AC3) (2.0 ch) (Dolby Surround)
  957. [11:09:26] scan: audio 0x3: ac3, rate=48000Hz, bitrate=192000 English (AC3) (2.0 ch) (Dolby Surround)
  958. [11:09:26] scan: 10 previews, 720x576, 25.000 fps, autocrop = 0/0/8/6, aspect 4:3, PAR 16:15
  959. [11:09:26] scan: decoding previews for title 6 (/home/john/Media/Video/TV Shows/Futurama/2001 Series 03/title05.mkv)
  960. [11:09:26] scan: audio 0x1: ac3, rate=48000Hz, bitrate=192000 English (AC3) (2.0 ch) (Dolby Surround)
  961. [11:09:26] scan: audio 0x2: ac3, rate=48000Hz, bitrate=192000 Francais (AC3) (2.0 ch) (Dolby Surround)
  962. [11:09:26] scan: audio 0x3: ac3, rate=48000Hz, bitrate=192000 English (AC3) (2.0 ch) (Dolby Surround)
  963. [11:09:26] scan: 10 previews, 720x576, 25.000 fps, autocrop = 0/0/0/0, aspect 4:3, PAR 16:15
  964. [11:09:26] libhb: scan thread found 6 valid title(s)
  965. [11:10:02] gtkgui: Preset: /General/Fast 1080p30
  966. [11:10:02] 1 job(s) to process
  967. [11:10:02] json job:
  968. {
  969.     "Audio": {
  970.         "AudioList": [
  971.             {
  972.                 "Bitrate": 160,
  973.                 "CompressionLevel": -1.0,
  974.                 "DRC": 0.0,
  975.                 "DitherMethod": "auto",
  976.                 "Encoder": "av_aac",
  977.                 "Gain": 0.0,
  978.                 "Mixdown": "dpl1",
  979.                 "NormalizeMixLevel": false,
  980.                 "PresetEncoder": "av_aac",
  981.                 "Quality": -3.0,
  982.                 "Samplerate": 0,
  983.                 "Track": 0
  984.             }
  985.         ],
  986.         "CopyMask": [
  987.             "copy:aac"
  988.         ],
  989.         "FallbackEncoder": "av_aac"
  990.     },
  991.     "Destination": {
  992.         "AlignAVStart": true,
  993.         "ChapterList": [
  994.             {
  995.                 "Name": "Chapter 1"
  996.             },
  997.             {
  998.                 "Name": "Chapter 2"
  999.             },
  1000.             {
  1001.                 "Name": "Chapter 3"
  1002.             },
  1003.             {
  1004.                 "Name": "Chapter 4"
  1005.             },
  1006.             {
  1007.                 "Name": "Chapter 5"
  1008.             }
  1009.         ],
  1010.         "ChapterMarkers": true,
  1011.         "File": "/home/john/Media/Video/TV Shows/Futurama/2001 Series 03/1 title00.m4v",
  1012.         "InlineParameterSets": false,
  1013.         "Mp4Options": {
  1014.             "IpodAtom": false,
  1015.             "Mp4Optimize": false
  1016.         },
  1017.         "Mux": "m4v"
  1018.     },
  1019.     "Filters": {
  1020.         "FilterList": [
  1021.             {
  1022.                 "ID": 3,
  1023.                 "Settings": {
  1024.                     "block-height": "16",
  1025.                     "block-thresh": "40",
  1026.                     "block-width": "16",
  1027.                     "filter-mode": "2",
  1028.                     "mode": "3",
  1029.                     "motion-thresh": "1",
  1030.                     "spatial-metric": "2",
  1031.                     "spatial-thresh": "1"
  1032.                 }
  1033.             },
  1034.             {
  1035.                 "ID": 4,
  1036.                 "Settings": {
  1037.                     "mode": "7"
  1038.                 }
  1039.             },
  1040.             {
  1041.                 "ID": 6,
  1042.                 "Settings": {
  1043.                     "mode": 2,
  1044.                     "rate": "27000000/900000"
  1045.                 }
  1046.             },
  1047.             {
  1048.                 "ID": 11,
  1049.                 "Settings": {
  1050.                     "crop-bottom": 0,
  1051.                     "crop-left": 0,
  1052.                     "crop-right": 2,
  1053.                     "crop-top": 0,
  1054.                     "height": 576,
  1055.                     "width": 718
  1056.                 }
  1057.             }
  1058.         ]
  1059.     },
  1060.     "Metadata": {
  1061.         "Name": "title00"
  1062.     },
  1063.     "PAR": {
  1064.         "Den": 15,
  1065.         "Num": 16
  1066.     },
  1067.     "SequenceID": 0,
  1068.     "Source": {
  1069.         "Angle": 0,
  1070.         "Path": "/home/john/Media/Video/TV Shows/Futurama/2001 Series 03/title00.mkv",
  1071.         "Range": {
  1072.             "End": 5,
  1073.             "Start": 1,
  1074.             "Type": "chapter"
  1075.         },
  1076.         "Title": 1
  1077.     },
  1078.     "Subtitle": {
  1079.         "Search": {
  1080.             "Burn": true,
  1081.             "Default": false,
  1082.             "Enable": true,
  1083.             "Forced": true
  1084.         },
  1085.         "SubtitleList": []
  1086.     },
  1087.     "Video": {
  1088.         "ColorMatrixCode": 0,
  1089.         "Encoder": "x264",
  1090.         "Level": "4.0",
  1091.         "Options": "",
  1092.         "Preset": "fast",
  1093.         "Profile": "main",
  1094.         "QSV": {
  1095.             "AsyncDepth": 4,
  1096.             "Decode": false
  1097.         },
  1098.         "Quality": 22.0,
  1099.         "Tune": "",
  1100.         "Turbo": false,
  1101.         "TwoPass": false
  1102.     }
  1103. }
  1104. [11:10:02] CPU: Intel(R) Core(TM) i5-3570K CPU @ 3.40GHz
  1105. [11:10:02]  - Intel microarchitecture Ivy Bridge
  1106. [11:10:02]  - logical processor count: 4
  1107. [11:10:02] hb_scan: path=/home/john/Media/Video/TV Shows/Futurama/2001 Series 03/title00.mkv, title_index=1
  1108. udfread ERROR: ECMA 167 Volume Recognition failed
  1109. disc.c:323: failed opening UDF image /home/john/Media/Video/TV Shows/Futurama/2001 Series 03/title00.mkv
  1110. disc.c:424: error opening file BDMV/index.bdmv
  1111. disc.c:424: error opening file BDMV/BACKUP/index.bdmv
  1112. [11:10:02] bd: not a bd - trying as a stream/file instead
  1113. libdvdnav: Using dvdnav version 6.0.0
  1114. libdvdread: Encrypted DVD support unavailable.
  1115. libdvdread:DVDOpenFileUDF:UDFFindFile /VIDEO_TS/VIDEO_TS.IFO failed
  1116. libdvdread:DVDOpenFileUDF:UDFFindFile /VIDEO_TS/VIDEO_TS.BUP failed
  1117. libdvdread: Can't open file VIDEO_TS.IFO.
  1118. libdvdnav: vm: failed to read VIDEO_TS.IFO
  1119. [11:10:02] dvd: not a dvd - trying as a stream/file instead
  1120. Input #0, matroska,webm, from '/home/john/Media/Video/TV Shows/Futurama/2001 Series 03/title00.mkv':
  1121.   Duration: 00:21:42.01, start: 0.000000, bitrate: N/A
  1122.     Chapter #0:0: start 0.080000, end 242.560000
  1123.     Metadata:
  1124.       title           : Chapter 01
  1125.     Chapter #0:1: start 242.560000, end 493.960000
  1126.     Metadata:
  1127.       title           : Chapter 02
  1128.     Chapter #0:2: start 493.960000, end 867.640000
  1129.     Metadata:
  1130.       title           : Chapter 03
  1131.     Chapter #0:3: start 867.640000, end 1035.080000
  1132.     Metadata:
  1133.       title           : Chapter 04
  1134.     Chapter #0:4: start 1035.080000, end 1302.016000
  1135.     Metadata:
  1136.       title           : Chapter 05
  1137.     Stream #0:0(eng): Video: mpeg2video (Main)
  1138.       yuv420p, tv, 720x576 [PAR 16:15 DAR 4:3], 7500 kb/s, PAR 16:15 DAR 4:3
  1139.       25 fps, 1k tbn
  1140.     Metadata:
  1141.       BPS-eng         : 5444107
  1142.       DURATION-eng    : 00:21:42.000000000
  1143.       NUMBER_OF_FRAMES-eng: 32550
  1144.       NUMBER_OF_BYTES-eng: 886028564
  1145.       SOURCE_ID-eng   : 0100E0
  1146.       _STATISTICS_WRITING_APP-eng: MakeMKV v1.12.3 linux(x64-release)
  1147.       _STATISTICS_WRITING_DATE_UTC-eng: 2018-11-23 10:57:27
  1148.       _STATISTICS_TAGS-eng: BPS DURATION NUMBER_OF_FRAMES NUMBER_OF_BYTES SOURCE_ID
  1149.     Stream #0:1(eng): Audio: ac3
  1150.       48000 Hz, stereo, fltp, 192 kb/s (default)
  1151.     Metadata:
  1152.       title           : Stereo
  1153.       BPS-eng         : 192000
  1154.       DURATION-eng    : 00:21:41.984000000
  1155.       NUMBER_OF_FRAMES-eng: 40687
  1156.       NUMBER_OF_BYTES-eng: 31247616
  1157.       SOURCE_ID-eng   : 0180BD
  1158.       _STATISTICS_WRITING_APP-eng: MakeMKV v1.12.3 linux(x64-release)
  1159.       _STATISTICS_WRITING_DATE_UTC-eng: 2018-11-23 10:57:27
  1160.       _STATISTICS_TAGS-eng: BPS DURATION NUMBER_OF_FRAMES NUMBER_OF_BYTES SOURCE_ID
  1161.     Stream #0:2(fre): Audio: ac3
  1162.       48000 Hz, stereo, fltp, 192 kb/s
  1163.     Metadata:
  1164.       title           : Stereo
  1165.       BPS-eng         : 192000
  1166.       DURATION-eng    : 00:21:41.984000000
  1167.       NUMBER_OF_FRAMES-eng: 40687
  1168.       NUMBER_OF_BYTES-eng: 31247616
  1169.       SOURCE_ID-eng   : 0181BD
  1170.       _STATISTICS_WRITING_APP-eng: MakeMKV v1.12.3 linux(x64-release)
  1171.       _STATISTICS_WRITING_DATE_UTC-eng: 2018-11-23 10:57:27
  1172.       _STATISTICS_TAGS-eng: BPS DURATION NUMBER_OF_FRAMES NUMBER_OF_BYTES SOURCE_ID
  1173.     Stream #0:3(eng): Audio: ac3
  1174.       48000 Hz, stereo, fltp, 192 kb/s
  1175.     Metadata:
  1176.       title           : Stereo
  1177.       BPS-eng         : 192000
  1178.       DURATION-eng    : 00:21:42.016000000
  1179.       NUMBER_OF_FRAMES-eng: 40688
  1180.       NUMBER_OF_BYTES-eng: 31248384
  1181.       SOURCE_ID-eng   : 0182BD
  1182.       _STATISTICS_WRITING_APP-eng: MakeMKV v1.12.3 linux(x64-release)
  1183.       _STATISTICS_WRITING_DATE_UTC-eng: 2018-11-23 10:57:27
  1184.       _STATISTICS_TAGS-eng: BPS DURATION NUMBER_OF_FRAMES NUMBER_OF_BYTES SOURCE_ID
  1185.     Stream #0:4(dan): Subtitle: dvd_subtitle (default)
  1186.     Metadata:
  1187.       BPS-eng         : 2740
  1188.       DURATION-eng    : 00:21:35.309866666
  1189.       NUMBER_OF_FRAMES-eng: 226
  1190.       NUMBER_OF_BYTES-eng: 443724
  1191.       SOURCE_ID-eng   : 0120BD
  1192.       _STATISTICS_WRITING_APP-eng: MakeMKV v1.12.3 linux(x64-release)
  1193.       _STATISTICS_WRITING_DATE_UTC-eng: 2018-11-23 10:57:27
  1194.       _STATISTICS_TAGS-eng: BPS DURATION NUMBER_OF_FRAMES NUMBER_OF_BYTES SOURCE_ID
  1195.     Stream #0:5(eng): Subtitle: dvd_subtitle
  1196.     Metadata:
  1197.       BPS-eng         : 3523
  1198.       DURATION-eng    : 00:21:31.509866666
  1199.       NUMBER_OF_FRAMES-eng: 306
  1200.       NUMBER_OF_BYTES-eng: 568856
  1201.       SOURCE_ID-eng   : 0121BD
  1202.       _STATISTICS_WRITING_APP-eng: MakeMKV v1.12.3 linux(x64-release)
  1203.       _STATISTICS_WRITING_DATE_UTC-eng: 2018-11-23 10:57:27
  1204.       _STATISTICS_TAGS-eng: BPS DURATION NUMBER_OF_FRAMES NUMBER_OF_BYTES SOURCE_ID
  1205.     Stream #0:6(fin): Subtitle: dvd_subtitle
  1206.     Metadata:
  1207.       BPS-eng         : 2967
  1208.       DURATION-eng    : 00:21:31.469866666
  1209.       NUMBER_OF_FRAMES-eng: 246
  1210.       NUMBER_OF_BYTES-eng: 479076
  1211.       SOURCE_ID-eng   : 0122BD
  1212.       _STATISTICS_WRITING_APP-eng: MakeMKV v1.12.3 linux(x64-release)
  1213.       _STATISTICS_WRITING_DATE_UTC-eng: 2018-11-23 10:57:27
  1214.       _STATISTICS_TAGS-eng: BPS DURATION NUMBER_OF_FRAMES NUMBER_OF_BYTES SOURCE_ID
  1215.     Stream #0:7(fre): Subtitle: dvd_subtitle
  1216.     Metadata:
  1217.       BPS-eng         : 3010
  1218.       DURATION-eng    : 00:21:34.789866666
  1219.       NUMBER_OF_FRAMES-eng: 257
  1220.       NUMBER_OF_BYTES-eng: 487216
  1221.       SOURCE_ID-eng   : 0123BD
  1222.       _STATISTICS_WRITING_APP-eng: MakeMKV v1.12.3 linux(x64-release)
  1223.       _STATISTICS_WRITING_DATE_UTC-eng: 2018-11-23 10:57:27
  1224.       _STATISTICS_TAGS-eng: BPS DURATION NUMBER_OF_FRAMES NUMBER_OF_BYTES SOURCE_ID
  1225.     Stream #0:8(nor): Subtitle: dvd_subtitle
  1226.     Metadata:
  1227.       BPS-eng         : 2932
  1228.       DURATION-eng    : 00:21:35.309866666
  1229.       NUMBER_OF_FRAMES-eng: 261
  1230.       NUMBER_OF_BYTES-eng: 474872
  1231.       SOURCE_ID-eng   : 0124BD
  1232.       _STATISTICS_WRITING_APP-eng: MakeMKV v1.12.3 linux(x64-release)
  1233.       _STATISTICS_WRITING_DATE_UTC-eng: 2018-11-23 10:57:27
  1234.       _STATISTICS_TAGS-eng: BPS DURATION NUMBER_OF_FRAMES NUMBER_OF_BYTES SOURCE_ID
  1235.     Stream #0:9(swe): Subtitle: dvd_subtitle
  1236.     Metadata:
  1237.       BPS-eng         : 2418
  1238.       DURATION-eng    : 00:21:35.309866666
  1239.       NUMBER_OF_FRAMES-eng: 218
  1240.       NUMBER_OF_BYTES-eng: 391520
  1241.       SOURCE_ID-eng   : 0125BD
  1242.       _STATISTICS_WRITING_APP-eng: MakeMKV v1.12.3 linux(x64-release)
  1243.       _STATISTICS_WRITING_DATE_UTC-eng: 2018-11-23 10:57:27
  1244.       _STATISTICS_TAGS-eng: BPS DURATION NUMBER_OF_FRAMES NUMBER_OF_BYTES SOURCE_ID
  1245.     Stream #0:10(fre): Subtitle: dvd_subtitle
  1246.     Metadata:
  1247.       BPS-eng         : 108
  1248.       DURATION-eng    : 00:21:34.789866666
  1249.       NUMBER_OF_FRAMES-eng: 13
  1250.       NUMBER_OF_BYTES-eng: 17484
  1251.       SOURCE_ID-eng   : 0126BD
  1252.       _STATISTICS_WRITING_APP-eng: MakeMKV v1.12.3 linux(x64-release)
  1253.       _STATISTICS_WRITING_DATE_UTC-eng: 2018-11-23 10:57:27
  1254.       _STATISTICS_TAGS-eng: BPS DURATION NUMBER_OF_FRAMES NUMBER_OF_BYTES SOURCE_ID
  1255.     Stream #0:11(eng): Subtitle: dvd_subtitle
  1256.     Metadata:
  1257.       BPS-eng         : 5492
  1258.       DURATION-eng    : 00:21:33.989866666
  1259.       NUMBER_OF_FRAMES-eng: 402
  1260.       NUMBER_OF_BYTES-eng: 888348
  1261.       SOURCE_ID-eng   : 0127BD
  1262.       _STATISTICS_WRITING_APP-eng: MakeMKV v1.12.3 linux(x64-release)
  1263.       _STATISTICS_WRITING_DATE_UTC-eng: 2018-11-23 10:57:27
  1264.       _STATISTICS_TAGS-eng: BPS DURATION NUMBER_OF_FRAMES NUMBER_OF_BYTES SOURCE_ID
  1265.     Stream #0:12(fre): Subtitle: dvd_subtitle
  1266.     Metadata:
  1267.       BPS-eng         : 4238
  1268.       DURATION-eng    : 00:21:33.989866666
  1269.       NUMBER_OF_FRAMES-eng: 346
  1270.       NUMBER_OF_BYTES-eng: 685592
  1271.       SOURCE_ID-eng   : 0128BD
  1272.       _STATISTICS_WRITING_APP-eng: MakeMKV v1.12.3 linux(x64-release)
  1273.       _STATISTICS_WRITING_DATE_UTC-eng: 2018-11-23 10:57:27
  1274.       _STATISTICS_TAGS-eng: BPS DURATION NUMBER_OF_FRAMES NUMBER_OF_BYTES SOURCE_ID
  1275. [11:10:02] scan: decoding previews for title 1
  1276. [11:10:02] scan: audio 0x1: ac3, rate=48000Hz, bitrate=192000 English (AC3) (2.0 ch) (Dolby Surround)
  1277. [11:10:02] scan: audio 0x2: ac3, rate=48000Hz, bitrate=192000 Francais (AC3) (2.0 ch) (Dolby Surround)
  1278. [11:10:02] scan: audio 0x3: ac3, rate=48000Hz, bitrate=192000 English (AC3) (2.0 ch) (Dolby Surround)
  1279. [11:10:02] scan: 10 previews, 720x576, 25.000 fps, autocrop = 0/0/0/2, aspect 4:3, PAR 16:15
  1280. [11:10:02] libhb: scan thread found 1 valid title(s)
  1281. [11:10:02] starting job
  1282. [11:10:02] decomb filter thread started for segment 0
  1283. [11:10:02] decomb filter thread started for segment 3
  1284. [11:10:02] decomb filter thread started for segment 2
  1285. [11:10:02] decomb filter thread started for segment 1
  1286. [11:10:02] decomb check thread started for segment 1
  1287. [11:10:02] yadif thread started for segment 2
  1288. [11:10:02] yadif thread started for segment 3
  1289. [11:10:02] mask filter thread started for segment 0
  1290. [11:10:02] mask filter thread started for segment 1
  1291. [11:10:02] decomb check thread started for segment 3
  1292. [11:10:02] mask filter thread started for segment 2
  1293. [11:10:02] mask filter thread started for segment 3
  1294. [11:10:02] mask erode thread started for segment 1
  1295. [11:10:02] mask erode thread started for segment 2
  1296. [11:10:02] mask erode thread started for segment 0
  1297. [11:10:02] mask erode thread started for segment 3
  1298. [11:10:02] mask dilate thread started for segment 1
  1299. [11:10:02] mask dilate thread started for segment 0
  1300. [11:10:02] mask dilate thread started for segment 2
  1301. [11:10:02] mask dilate thread started for segment 3
  1302. [11:10:02] yadif thread started for segment 0
  1303. [11:10:02] yadif thread started for segment 1
  1304. [11:10:02] decomb check thread started for segment 0
  1305. [11:10:02] decomb check thread started for segment 2
  1306. [11:10:02] job configuration:
  1307. [11:10:02]  * source
  1308. [11:10:02]    + /home/john/Media/Video/TV Shows/Futurama/2001 Series 03/title00.mkv
  1309. [11:10:02]    + title 1, chapter(s) 1 to 5
  1310. [11:10:02]    + container: matroska,webm
  1311. [11:10:02]  * destination
  1312. [11:10:02]    + /home/john/Media/Video/TV Shows/Futurama/2001 Series 03/1 title00.m4v
  1313. [11:10:02]    + container: MPEG-4 (libavformat)
  1314. [11:10:02]      + align initial A/V stream timestamps
  1315. [11:10:02]      + chapter markers
  1316. [11:10:02]  * video track
  1317. [11:10:02]    + decoder: mpeg2video
  1318. [11:10:02]      + bitrate 7500 kbps
  1319. [11:10:02]    + filters
  1320. [11:10:02]      + Comb Detect (mode=3:spatial-metric=2:motion-thresh=1:spatial-thresh=1:filter-mode=2:block-thresh=40:block-width=16:block-height=16)
  1321. [11:10:02]      + Decomb (mode=39)
  1322. [11:10:02]      + Framerate Shaper (mode=2:rate=27000000/900000)
  1323. [11:10:02]        + frame rate: 25.000 fps -> peak rate limited to 30.000 fps
  1324. [11:10:02]      + Crop and Scale (width=718:height=576:crop-top=0:crop-bottom=0:crop-left=0:crop-right=2)
  1325. [11:10:02]        + source: 720 * 576, crop (0/0/0/2): 718 * 576, scale: 718 * 576
  1326. [11:10:02]    + Output geometry
  1327. [11:10:02]      + storage dimensions: 718 x 576
  1328. [11:10:02]      + pixel aspect ratio: 16 : 15
  1329. [11:10:02]      + display dimensions: 765 x 576
  1330. [11:10:02]  * Foreign Audio Search: Render/Burn-in, Forced Only
  1331. [11:10:02]    + subtitle, English [VOBSUB] (track 1, id 0x5, Picture)
  1332. [11:10:02]    + subtitle, English [VOBSUB] (track 7, id 0xb, Picture)
  1333. [11:10:02] sync: expecting 32550 video frames
  1334. [11:10:03] reader: done. 1 scr changes
  1335. [11:10:03] work: average encoding speed for job is 0.000000 fps
  1336. [11:10:03] comb detect: heavy 0 | light 0 | uncombed 0 | total 0
  1337. [11:10:03] decomb: deinterlaced 0 | blended 0 | unfiltered 0 | total 0
  1338. [11:10:03] vfr: 0 frames output, 0 dropped and 0 duped for CFR/PFR
  1339. [11:10:03] vfr: lost time: 0 (0 frames)
  1340. [11:10:03] vfr: gained time: 0 (0 frames) (0 not accounted for)
  1341. [11:10:03] mpeg2video-decoder done: 0 frames, 0 decoder errors
  1342. [11:10:03] sync: got 0 frames, 32550 expected
  1343. [11:10:03] Subtitle track 1 (id 0x5) 'English [VOBSUB]': 306 hits (0 forced)
  1344. [11:10:03] Subtitle track 7 (id 0xb) 'English [VOBSUB]': 402 hits (0 forced)
  1345. [11:10:03] No candidate detected during subtitle scan
  1346. [11:10:03] starting job
  1347. [11:10:03] decomb filter thread started for segment 0
  1348. [11:10:03] decomb filter thread started for segment 3
  1349. [11:10:03] decomb filter thread started for segment 2
  1350. [11:10:03] decomb check thread started for segment 0
  1351. [11:10:03] decomb check thread started for segment 1
  1352. [11:10:03] decomb check thread started for segment 2
  1353. [11:10:03] decomb check thread started for segment 3
  1354. [11:10:03] mask filter thread started for segment 0
  1355. [11:10:03] mask filter thread started for segment 1
  1356. [11:10:03] mask filter thread started for segment 2
  1357. [11:10:03] mask filter thread started for segment 3
  1358. [11:10:03] mask erode thread started for segment 0
  1359. [11:10:03] mask erode thread started for segment 1
  1360. [11:10:03] mask erode thread started for segment 2
  1361. [11:10:03] mask erode thread started for segment 3
  1362. [11:10:03] mask dilate thread started for segment 0
  1363. [11:10:03] mask dilate thread started for segment 1
  1364. [11:10:03] mask dilate thread started for segment 2
  1365. [11:10:03] mask dilate thread started for segment 3
  1366. [11:10:03] yadif thread started for segment 0
  1367. [11:10:03] yadif thread started for segment 1
  1368. [11:10:03] yadif thread started for segment 2
  1369. [11:10:03] yadif thread started for segment 3
  1370. [11:10:03] job configuration:
  1371. [11:10:03] decomb filter thread started for segment 1
  1372. [11:10:03]  * source
  1373. [11:10:03]    + /home/john/Media/Video/TV Shows/Futurama/2001 Series 03/title00.mkv
  1374. [11:10:03]    + title 1, chapter(s) 1 to 5
  1375. [11:10:03]    + container: matroska,webm
  1376. [11:10:03]  * destination
  1377. [11:10:03]    + /home/john/Media/Video/TV Shows/Futurama/2001 Series 03/1 title00.m4v
  1378. [11:10:03]    + container: MPEG-4 (libavformat)
  1379. [11:10:03]      + align initial A/V stream timestamps
  1380. [11:10:03]      + chapter markers
  1381. [11:10:03]  * video track
  1382. [11:10:03]    + decoder: mpeg2video
  1383. [11:10:03]      + bitrate 7500 kbps
  1384. [11:10:03]    + filters
  1385. [11:10:03]      + Comb Detect (mode=3:spatial-metric=2:motion-thresh=1:spatial-thresh=1:filter-mode=2:block-thresh=40:block-width=16:block-height=16)
  1386. [11:10:03]      + Decomb (mode=39)
  1387. [11:10:03]      + Framerate Shaper (mode=2:rate=27000000/900000)
  1388. [11:10:03]        + frame rate: 25.000 fps -> peak rate limited to 30.000 fps
  1389. [11:10:03]      + Crop and Scale (width=718:height=576:crop-top=0:crop-bottom=0:crop-left=0:crop-right=2)
  1390. [11:10:03]        + source: 720 * 576, crop (0/0/0/2): 718 * 576, scale: 718 * 576
  1391. [11:10:03]    + Output geometry
  1392. [11:10:03]      + storage dimensions: 718 x 576
  1393. [11:10:03]      + pixel aspect ratio: 16 : 15
  1394. [11:10:03]      + display dimensions: 765 x 576
  1395. [11:10:03]    + encoder: H.264 (libx264)
  1396. [11:10:03]      + preset:  fast
  1397. [11:10:03]      + profile: main
  1398. [11:10:03]      + level:   4.0
  1399. [11:10:03]      + quality: 22.00 (RF)
  1400. [11:10:03]  * audio track 1
  1401. [11:10:03]    + decoder: English (AC3) (2.0 ch) (Dolby Surround) (track 1, id 0x1)
  1402. [11:10:03]      + bitrate: 192 kbps, samplerate: 48000 Hz
  1403. [11:10:03]    + mixdown: Dolby Surround
  1404. [11:10:03]    + encoder: AAC (libavcodec)
  1405. [11:10:03]      + bitrate: 160 kbps, samplerate: 48000 Hz
  1406. [11:10:03] sync: expecting 32550 video frames
  1407. [11:10:03] encx264: encoding at constant RF 22.000000
  1408. [11:10:03] encx264: unparsed options: level=4.0:ref=2:8x8dct=0:weightp=1:subme=6:vbv-bufsize=25000:vbv-maxrate=20000:rc-lookahead=30
  1409. x264 [info]: using SAR=16/15
  1410. x264 [info]: using cpu capabilities: MMX2 SSE2Fast SSSE3 SSE4.2 AVX
  1411. x264 [info]: profile Main, level 4.0
  1412. [11:10:03] sync: first pts video is 0
  1413. [11:10:03] sync: first pts audio 0x1 is 0
  1414. [11:10:03] sync: "Chapter 1" (1) at frame 3 time 7200
  1415. [11:10:34] sync: "Chapter 2" (2) at frame 6065 time 21830400
  1416. [11:11:04] sync: "Chapter 3" (3) at frame 12350 time 44456400
  1417. [11:12:02] sync: "Chapter 4" (4) at frame 21692 time 78087600
RAW Paste Data
We use cookies for various purposes including analytics. By continuing to use Pastebin, you agree to our use of cookies as described in the Cookies Policy. OK, I Understand
Not a member of Pastebin yet?
Sign Up, it unlocks many cool features!
 
Top