SHARE
TWEET

Media Info

a guest Oct 10th, 2019 238 Never
Not a member of Pastebin yet? Sign Up, it unlocks many cool features!
  1. Format                      : Matroska
  2. Format version              : Version 4
  3. File size                   : 848 MiB
  4. Duration                    : 1 h 58 min
  5. Overall bit rate            : 1 003 kb/s
  6. Movie name                  : Visit: MkvHub.Com
  7. Encoded date                : UTC 2019-10-10 06:28:23
  8. Writing application         : mkvmerge v10.0.0 ('To Drown In You') 64bit
  9. Writing library             : libebml v1.3.4 + libmatroska v1.4.5
  10.  
  11. Video
  12. ID                          : 1
  13. Format                      : AVC
  14. Format/Info                 : Advanced Video Codec
  15. Format profile              : High@L3.1
  16. Format settings             : CABAC / 4 Ref Frames
  17. Format settings, CABAC      : Yes
  18. Format settings, Reference  : 4 frames
  19. Codec ID                    : V_MPEG4/ISO/AVC
  20. Duration                    : 1 h 58 min
  21. Bit rate                    : 916 kb/s
  22. Width                       : 1 280 pixels
  23. Height                      : 712 pixels
  24. Display aspect ratio        : 16:9
  25. Frame rate mode             : Constant
  26. Frame rate                  : 23.976 (24000/1001) FPS
  27. Color space                 : YUV
  28. Chroma subsampling          : 4:2:0
  29. Bit depth                   : 8 bits
  30. Scan type                   : Progressive
  31. Bits/(Pixel*Frame)          : 0.042
  32. Stream size                 : 766 MiB (90%)
  33. Title                       : MkvHub.Com
  34. Writing library             : x264 core 157 r2935 545de2f
  35. Encoding settings           : cabac=1 / ref=1 / deblock=1:0:0 / analyse=0x3:0x113 / me=hex / subme=2 / psy=1 / psy_rd=1.00:0.00 / mixed_ref=0 / me_range=16 / chroma_me=1 / trellis=0 / 8x8dct=1 / cqm=0 / deadzone=21,11 / fast_pskip=1 / chroma_qp_offset=0 / threads=22 / lookahead_threads=5 / sliced_threads=0 / nr=0 / decimate=1 / interlaced=0 / bluray_compat=0 / constrained_intra=0 / bframes=3 / b_pyramid=2 / b_adapt=1 / b_bias=0 / direct=1 / weightb=1 / open_gop=0 / weightp=1 / keyint=240 / keyint_min=23 / scenecut=40 / intra_refresh=0 / rc_lookahead=10 / rc=abr / mbtree=1 / bitrate=916 / ratetol=1.0 / qcomp=0.60 / qpmin=0 / qpmax=69 / qpstep=4 / ip_ratio=1.40 / aq=1:1.00
  36. Language                    : English
  37. Default                     : Yes
  38. Forced                      : No
  39.  
  40. Audio
  41. ID                          : 2
  42. Format                      : AC-3
  43. Format/Info                 : Audio Coding 3
  44. Commercial name             : Dolby Digital
  45. Codec ID                    : A_AC3
  46. Duration                    : 1 h 58 min
  47. Bit rate mode               : Constant
  48. Bit rate                    : 96.0 kb/s
  49. Channel(s)                  : 2 channels
  50. Channel layout              : L R
  51. Sampling rate               : 48.0 kHz
  52. Frame rate                  : 31.250 FPS (1536 SPF)
  53. Bit depth                   : 16 bits
  54. Compression mode            : Lossy
  55. Stream size                 : 81.2 MiB (10%)
  56. Title                       : MkvHub.Com
  57. Language                    : English
  58. Service kind                : Complete Main
  59. Default                     : Yes
  60. Forced                      : No
  61.  
  62. Text #1
  63. ID                          : 3
  64. Format                      : UTF-8
  65. Codec ID                    : S_TEXT/UTF8
  66. Codec ID/Info               : UTF-8 Plain Text
  67. Duration                    : 1 h 52 min
  68. Bit rate                    : 56 b/s
  69. Count of elements           : 1737
  70. Stream size                 : 46.5 KiB (0%)
  71. Title                       : MkvHub.Com
  72. Language                    : English
  73. Default                     : Yes
  74. Forced                      : Yes
  75.  
  76. Text #2
  77. ID                          : 4
  78. Format                      : UTF-8
  79. Codec ID                    : S_TEXT/UTF8
  80. Codec ID/Info               : UTF-8 Plain Text
  81. Duration                    : 1 h 50 min
  82. Bit rate                    : 51 b/s
  83. Count of elements           : 1545
  84. Stream size                 : 41.3 KiB (0%)
  85. Title                       : MkvHub.Com
  86. Language                    : English
  87. Default                     : No
  88. Forced                      : No
RAW Paste Data
We use cookies for various purposes including analytics. By continuing to use Pastebin, you agree to our use of cookies as described in the Cookies Policy. OK, I Understand
 
Top