SHARE
TWEET

Untitled

seleZennet Jan 23rd, 2020 74 Never
Not a member of Pastebin yet? Sign Up, it unlocks many cool features!
  1. General
  2. Unique ID                   : 307041680430175478744846227545226363644 (0xE6FE139F6F8785BB8338A0CEF0BE42FC)
  3. Complete name               : E:\Video111\Doctor.Sleep.2019.AMZN.WEB-DL.720p.seleZen.mkv
  4. Format                      : Matroska
  5. Format version              : Version 4
  6. File size                   : 4.13 GiB
  7. Duration                    : 2 h 31 min
  8. Overall bit rate            : 3 895 kb/s
  9. Movie name                  : Doctor Sleep 2019 from селезень
  10. Encoded date                : UTC 2020-01-23 21:04:16
  11. Writing application         : mkvmerge v40.0.0 ('Old Town Road + Pony') 64-bit
  12. Writing library             : libebml v1.3.9 + libmatroska v1.5.2
  13.  
  14. Video
  15. ID                          : 1
  16. Format                      : AVC
  17. Format/Info                 : Advanced Video Codec
  18. Format profile              : High@L3.1
  19. Format settings             : CABAC / 4 Ref Frames
  20. Format settings, CABAC      : Yes
  21. Format settings, Reference  : 4 frames
  22. Codec ID                    : V_MPEG4/ISO/AVC
  23. Duration                    : 2 h 31 min
  24. Bit rate mode               : Constant
  25. Bit rate                    : 2 676 kb/s
  26. Nominal bit rate            : 6 000 kb/s
  27. Width                       : 1 280 pixels
  28. Height                      : 688 pixels
  29. Display aspect ratio        : 1.85:1
  30. Frame rate mode             : Constant
  31. Frame rate                  : 23.976 (24000/1001) FPS
  32. Color space                 : YUV
  33. Chroma subsampling          : 4:2:0
  34. Bit depth                   : 8 bits
  35. Scan type                   : Progressive
  36. Bits/(Pixel*Frame)          : 0.127
  37. Stream size                 : 2.84 GiB (69%)
  38. Language                    : English
  39. Default                     : Yes
  40. Forced                      : No
  41. Color range                 : Limited
  42. Color primaries             : BT.709
  43. Transfer characteristics    : BT.709
  44. Matrix coefficients         : BT.709
  45.  
  46. Audio #1
  47. ID                          : 2
  48. Format                      : AC-3
  49. Format/Info                 : Audio Coding 3
  50. Commercial name             : Dolby Digital
  51. Codec ID                    : A_AC3
  52. Duration                    : 2 h 31 min
  53. Bit rate mode               : Constant
  54. Bit rate                    : 384 kb/s
  55. Channel(s)                  : 6 channels
  56. Channel layout              : L R C LFE Ls Rs
  57. Sampling rate               : 48.0 kHz
  58. Frame rate                  : 31.250 FPS (1536 SPF)
  59. Compression mode            : Lossy
  60. Stream size                 : 417 MiB (10%)
  61. Title                       : iTunes
  62. Language                    : Russian
  63. Service kind                : Complete Main
  64. Default                     : Yes
  65. Forced                      : Yes
  66.  
  67. Audio #2
  68. ID                          : 3
  69. Format                      : AC-3
  70. Format/Info                 : Audio Coding 3
  71. Commercial name             : Dolby Digital
  72. Codec ID                    : A_AC3
  73. Duration                    : 2 h 31 min
  74. Bit rate mode               : Constant
  75. Bit rate                    : 192 kb/s
  76. Channel(s)                  : 2 channels
  77. Channel layout              : L R
  78. Sampling rate               : 48.0 kHz
  79. Frame rate                  : 31.250 FPS (1536 SPF)
  80. Compression mode            : Lossy
  81. Stream size                 : 209 MiB (5%)
  82. Title                       : iTunes
  83. Language                    : Ukrainian
  84. Service kind                : Complete Main
  85. Default                     : No
  86. Forced                      : No
  87.  
  88. Audio #3
  89. ID                          : 4
  90. Format                      : E-AC-3
  91. Format/Info                 : Enhanced AC-3
  92. Commercial name             : Dolby Digital Plus
  93. Codec ID                    : A_EAC3
  94. Duration                    : 2 h 31 min
  95. Bit rate mode               : Constant
  96. Bit rate                    : 640 kb/s
  97. Channel(s)                  : 6 channels
  98. Channel layout              : L R C LFE Ls Rs
  99. Sampling rate               : 48.0 kHz
  100. Frame rate                  : 31.250 FPS (1536 SPF)
  101. Compression mode            : Lossy
  102. Stream size                 : 696 MiB (16%)
  103. Title                       : Original
  104. Language                    : English
  105. Service kind                : Complete Main
  106. Default                     : No
  107. Forced                      : No
  108.  
  109. Text #1
  110. ID                          : 5
  111. Format                      : UTF-8
  112. Codec ID                    : S_TEXT/UTF8
  113. Codec ID/Info               : UTF-8 Plain Text
  114. Duration                    : 2 h 14 min
  115. Bit rate                    : 3 b/s
  116. Count of elements           : 42
  117. Stream size                 : 3.85 KiB (0%)
  118. Title                       : Forced
  119. Language                    : Russian
  120. Default                     : Yes
  121. Forced                      : Yes
  122.  
  123. Text #2
  124. ID                          : 6
  125. Format                      : UTF-8
  126. Codec ID                    : S_TEXT/UTF8
  127. Codec ID/Info               : UTF-8 Plain Text
  128. Duration                    : 2 h 25 min
  129. Bit rate                    : 60 b/s
  130. Count of elements           : 1656
  131. Stream size                 : 64.7 KiB (0%)
  132. Title                       : Full
  133. Language                    : Russian
  134. Default                     : No
  135. Forced                      : No
  136.  
  137. Text #3
  138. ID                          : 7
  139. Format                      : UTF-8
  140. Codec ID                    : S_TEXT/UTF8
  141. Codec ID/Info               : UTF-8 Plain Text
  142. Duration                    : 2 h 14 min
  143. Bit rate                    : 1 b/s
  144. Count of elements           : 43
  145. Stream size                 : 1.74 KiB (0%)
  146. Title                       : Forced
  147. Language                    : Ukrainian
  148. Default                     : No
  149. Forced                      : No
  150.  
  151. Text #4
  152. ID                          : 8
  153. Format                      : UTF-8
  154. Codec ID                    : S_TEXT/UTF8
  155. Codec ID/Info               : UTF-8 Plain Text
  156. Duration                    : 2 h 25 min
  157. Bit rate                    : 37 b/s
  158. Count of elements           : 1693
  159. Stream size                 : 39.7 KiB (0%)
  160. Title                       : Full
  161. Language                    : English
  162. Default                     : No
  163. Forced                      : No
  164.  
  165. Text #5
  166. ID                          : 9
  167. Format                      : UTF-8
  168. Codec ID                    : S_TEXT/UTF8
  169. Codec ID/Info               : UTF-8 Plain Text
  170. Duration                    : 2 h 25 min
  171. Bit rate                    : 42 b/s
  172. Count of elements           : 1943
  173. Stream size                 : 45.4 KiB (0%)
  174. Title                       : SDH
  175. Language                    : English
  176. Default                     : No
  177. Forced                      : No
RAW Paste Data
We use cookies for various purposes including analytics. By continuing to use Pastebin, you agree to our use of cookies as described in the Cookies Policy. OK, I Understand
Top