SHARE
TWEET

24 1080p

bluecity Jan 17th, 2020 (edited) 78 Never
Not a member of Pastebin yet? Sign Up, it unlocks many cool features!
  1. Source: BluRay REMUX (see notes)
  2.  
  3. Video
  4. ID                                       : 1
  5. Format                                   : HEVC
  6. Format/Info                              : High Efficiency Video Coding
  7. Format profile                           : Main 10@L4@Main
  8. Codec ID                                 : V_MPEGH/ISO/HEVC
  9. Duration                                 : 51 min 55 s
  10. Bit rate                                 : 3 381 kb/s
  11. Width                                    : 1 920 pixels
  12. Height                                   : 1 080 pixels
  13. Display aspect ratio                     : 16:9
  14. Frame rate mode                          : Constant
  15. Frame rate                               : 23.976 (24000/1001) FPS
  16. Color space                              : YUV
  17. Chroma subsampling                       : 4:2:0
  18. Bit depth                                : 10 bits
  19. Bits/(Pixel*Frame)                       : 0.068
  20. Stream size                              : 1.23 GiB (88%)
  21. Default                                  : Yes
  22. Forced                                   : No
  23. Color range                              : Limited
  24. Color primaries                          : BT.709
  25. Transfer characteristics                 : BT.709
  26. Matrix coefficients                      : BT.709
  27.  
  28. Audio S01
  29. ID                                       : 2
  30. Format                                   : AC-3
  31. Format/Info                              : Audio Coding 3
  32. Codec ID                                 : A_AC3
  33. Duration                                 : 42 min 46 s
  34. Bit rate mode                            : Constant
  35. Bit rate                                 : 224 kb/s
  36. Channel(s)                               : 2 channels
  37. Channel positions                        : Front: L R
  38. Sampling rate                            : 48.0 kHz
  39. Frame rate                               : 31.250 FPS (1536 SPF)
  40. Bit depth                                : 16 bits
  41. Compression mode                         : Lossy
  42. Stream size                              : 68.5 MiB (6%)
  43. Language                                 : English
  44. Service kind                             : Complete Main
  45. Default                                  : Yes
  46. Forced                                   : No
  47.  
  48.  
  49. Audio S02-06
  50. ID                                       : 2
  51. Format                                   : AC-3
  52. Format/Info                              : Audio Coding 3
  53. Codec ID                                 : A_AC3
  54. Duration                                 : 51 min 55 s
  55. Bit rate mode                            : Constant
  56. Bit rate                                 : 448 kb/s
  57. Channel(s)                               : 6 channels
  58. Channel positions                        : Front: L C R, Side: L R, LFE
  59. Sampling rate                            : 48.0 kHz
  60. Frame rate                               : 31.250 FPS (1536 SPF)
  61. Bit depth                                : 16 bits
  62. Compression mode                         : Lossy
  63. Stream size                              : 166 MiB (12%)
  64. Language                                 : English
  65. Service kind                             : Complete Main
  66. Default                                  : Yes
  67. Forced                                   : No
  68.  
  69. Audio S07-09
  70. ID                                       : 2
  71. Format                                   : DTS
  72. Format/Info                              : Digital Theater Systems
  73. Format profile                           : MA / Core
  74. Codec ID                                 : A_DTS
  75. Duration                                 : 46 min 21 s
  76. Bit rate mode                            : Variable / Constant
  77. Bit rate                                 : 2 410 kb/s / 1 509 kb/s
  78. Channel(s)                               : 6 channels
  79. Channel positions                        : Front: L C R, Side: L R, LFE
  80. Sampling rate                            : 48.0 kHz
  81. Frame rate                               : 93.750 FPS (512 SPF)
  82. Bit depth                                : 24 bits
  83. Compression mode                         : Lossless / Lossy
  84. Stream size                              : 799 MiB (41%)
  85. Language                                 : English
  86. Default                                  : Yes
  87. Forced                                   : No
  88.  
  89. Text #1
  90. ID                                       : 3
  91. Format                                   : VobSub
  92. Codec ID                                 : S_VOBSUB
  93. Codec ID/Info                            : Picture based subtitle format used on DVDs
  94. Duration                                 : 48 min 42 s
  95. Bit rate                                 : 10.7 kb/s
  96. Count of elements                        : 538
  97. Stream size                              : 3.73 MiB (0%)
  98. Language                                 : English
  99. Default                                  : Yes
  100. Forced                                   : No
  101.  
  102. Text #2
  103. ID                                       : 4
  104. Format                                   : VobSub
  105. Codec ID                                 : S_VOBSUB
  106. Codec ID/Info                            : Picture based subtitle format used on DVDs
  107. Bit rate                                 : 0 b/s
  108. Count of elements                        : 0
  109. Stream size                              : 0.00 Byte (0%)
  110. Language                                 : English
  111. Default                                  : No
  112. Forced                                   : No
  113.  
  114. NOTES
  115.  
  116.  
  117. Thanks are in order.  First to FeralLoki for providing the great EPSiLON REMUX releases.  The first six seasons were ripped from the Japanese BluRay Relesases.
  118. Next I want to thank "fate385" for assiting in getting the source files down from his "Cloud".
  119.  
  120. The series all were encoded with original audio codec's.  S01 was AC3 2Ch, S02-06 are AC3 6Ch, and S07-09 Dts-HD Ma5.1.
  121. The movie Redeption is with AC3 6Ch audio.
  122.  
  123. Also included is the movie "24 Redemption".
  124.  
  125. The total size of the source files was in excess of 1.6 TB. HEVC Rocks!
  126.  
  127. Enjoy!
RAW Paste Data
We use cookies for various purposes including analytics. By continuing to use Pastebin, you agree to our use of cookies as described in the Cookies Policy. OK, I Understand
Top