SHARE
TWEET

Untitled

seleZennet Mar 13th, 2020 107 Never
Not a member of Pastebin yet? Sign Up, it unlocks many cool features!
  1. General
  2. Unique ID                   : 281078635009215956724274349016349069911 (0xD375C6A739FC250AF6706959F346D257)
  3. Complete name               : E:\Video111\The.Room.2019.BDRip.720p.seleZen.mkv
  4. Format                      : Matroska
  5. Format version              : Version 4
  6. File size                   : 3.75 GiB
  7. Duration                    : 1 h 39 min
  8. Overall bit rate            : 5 413 kb/s
  9. Movie name                  : The Room 2019 from селезень
  10. Encoded date                : UTC 2020-03-14 03:44:55
  11. Writing application         : mkvmerge v40.0.0 ('Old Town Road + Pony') 64-bit
  12. Writing library             : libebml v1.3.9 + libmatroska v1.5.2
  13.  
  14. Video
  15. ID                          : 1
  16. Format                      : AVC
  17. Format/Info                 : Advanced Video Codec
  18. Format profile              : High@L4.1
  19. Format settings             : CABAC / 12 Ref Frames
  20. Format settings, CABAC      : Yes
  21. Format settings, Reference  : 12 frames
  22. Codec ID                    : V_MPEG4/ISO/AVC
  23. Duration                    : 1 h 39 min
  24. Bit rate                    : 4 200 kb/s
  25. Width                       : 1 280 pixels
  26. Height                      : 536 pixels
  27. Display aspect ratio        : 2.40:1
  28. Frame rate mode             : Constant
  29. Frame rate                  : 24.000 FPS
  30. Color space                 : YUV
  31. Chroma subsampling          : 4:2:0
  32. Bit depth                   : 8 bits
  33. Scan type                   : Progressive
  34. Bits/(Pixel*Frame)          : 0.255
  35. Stream size                 : 2.91 GiB (77%)
  36. Title                       : Encoded by seleZen
  37. Writing library             : x264 core 142 r2431+42 c69a006 tMod [8-bit@all X86_64]
  38. Encoding settings           : cabac=1 / ref=12 / deblock=1:-2:-2 / analyse=0x3:0x133 / me=umh / subme=10 / psy=1 / fade_compensate=0.00 / psy_rd=1.00:0.00 / mixed_ref=1 / me_range=32 / chroma_me=1 / trellis=2 / 8x8dct=1 / cqm=0 / deadzone=21,11 / fast_pskip=0 / chroma_qp_offset=-2 / threads=24 / lookahead_threads=4 / sliced_threads=0 / nr=0 / decimate=0 / interlaced=0 / bluray_compat=0 / constrained_intra=0 / fgo=0 / bframes=8 / b_pyramid=2 / b_adapt=2 / b_bias=0 / direct=3 / weightb=1 / open_gop=0 / weightp=2 / keyint=240 / keyint_min=24 / scenecut=40 / intra_refresh=0 / rc_lookahead=50 / rc=2pass / mbtree=0 / bitrate=4200 / ratetol=1.0 / qcomp=0.60 / qpmin=0:0:0 / qpmax=51:51:51 / qpstep=4 / cplxblur=20.0 / qblur=0.5 / vbv_maxrate=50000 / vbv_bufsize=62500 / nal_hrd=none / filler=0 / ip_ratio=1.40 / pb_ratio=1.30 / aq=3:0.80 / aq-sensitivity=10.00 / aq-factor=1.00:1.00:1.00 / aq2=0 / aq3=0
  39. Language                    : English
  40. Default                     : Yes
  41. Forced                      : No
  42.  
  43. Audio #1
  44. ID                          : 2
  45. Format                      : AC-3
  46. Format/Info                 : Audio Coding 3
  47. Commercial name             : Dolby Digital
  48. Codec ID                    : A_AC3
  49. Duration                    : 1 h 39 min
  50. Bit rate mode               : Constant
  51. Bit rate                    : 384 kb/s
  52. Channel(s)                  : 6 channels
  53. Channel layout              : L R C LFE Ls Rs
  54. Sampling rate               : 48.0 kHz
  55. Frame rate                  : 31.250 FPS (1536 SPF)
  56. Compression mode            : Lossy
  57. Stream size                 : 272 MiB (7%)
  58. Title                       : Dub
  59. Language                    : Russian
  60. Service kind                : Complete Main
  61. Default                     : Yes
  62. Forced                      : Yes
  63.  
  64. Audio #2
  65. ID                          : 3
  66. Format                      : AC-3
  67. Format/Info                 : Audio Coding 3
  68. Commercial name             : Dolby Digital
  69. Codec ID                    : A_AC3
  70. Duration                    : 1 h 39 min
  71. Bit rate mode               : Constant
  72. Bit rate                    : 192 kb/s
  73. Channel(s)                  : 2 channels
  74. Channel layout              : L R
  75. Sampling rate               : 48.0 kHz
  76. Frame rate                  : 31.250 FPS (1536 SPF)
  77. Compression mode            : Lossy
  78. Stream size                 : 136 MiB (4%)
  79. Title                       : Dub
  80. Language                    : Ukrainian
  81. Service kind                : Complete Main
  82. Default                     : No
  83. Forced                      : No
  84.  
  85. Audio #3
  86. ID                          : 4
  87. Format                      : AC-3
  88. Format/Info                 : Audio Coding 3
  89. Commercial name             : Dolby Digital
  90. Codec ID                    : A_AC3
  91. Duration                    : 1 h 39 min
  92. Bit rate mode               : Constant
  93. Bit rate                    : 640 kb/s
  94. Channel(s)                  : 6 channels
  95. Channel layout              : L R C LFE Ls Rs
  96. Sampling rate               : 48.0 kHz
  97. Frame rate                  : 31.250 FPS (1536 SPF)
  98. Compression mode            : Lossy
  99. Stream size                 : 454 MiB (12%)
  100. Title                       : Original
  101. Language                    : English
  102. Service kind                : Complete Main
  103. Default                     : No
  104. Forced                      : No
  105.  
  106. Text #1
  107. ID                          : 5
  108. Format                      : UTF-8
  109. Codec ID                    : S_TEXT/UTF8
  110. Codec ID/Info               : UTF-8 Plain Text
  111. Duration                    : 1 h 33 min
  112. Bit rate                    : 36 b/s
  113. Count of elements           : 639
  114. Stream size                 : 24.9 KiB (0%)
  115. Title                       : Full
  116. Language                    : Russian
  117. Default                     : No
  118. Forced                      : No
  119.  
  120. Text #2
  121. ID                          : 6
  122. Format                      : UTF-8
  123. Codec ID                    : S_TEXT/UTF8
  124. Codec ID/Info               : UTF-8 Plain Text
  125. Duration                    : 1 h 32 min
  126. Bit rate                    : 22 b/s
  127. Count of elements           : 636
  128. Stream size                 : 15.5 KiB (0%)
  129. Title                       : Full
  130. Language                    : English
  131. Default                     : No
  132. Forced                      : No
  133.  
  134. Menu
  135. 00:00:00.000                : en:Глава 01
  136. 00:09:01.500                : en:Глава 02
  137. 00:19:51.500                : en:Глава 03
  138. 00:29:38.500                : en:Глава 04
  139. 00:38:45.500                : en:Глава 05
  140. 00:49:33.000                : en:Глава 06
  141. 01:02:01.000                : en:Глава 07
  142. 01:10:37.500                : en:Глава 08
  143. 01:20:13.500                : en:Глава 09
  144. 01:30:57.500                : en:Глава 10
RAW Paste Data
We use cookies for various purposes including analytics. By continuing to use Pastebin, you agree to our use of cookies as described in the Cookies Policy. OK, I Understand
Top