SHARE
TWEET

Untitled

mft39anton Jun 7th, 2019 97 Never
Not a member of Pastebin yet? Sign Up, it unlocks many cool features!
  1. Disc Title:     EDITH_ET_MARCEL
  2. Disc Size:      38,630,519,859 bytes
  3. Protection:     AACS
  4. BD-Java:        No
  5. Extras:         50Hz Content
  6. BDInfo:         0.7.3.3
  7.  
  8. Notes:          
  9.  
  10. BDINFO HOME:
  11.   Cinema Squid
  12.     http://www.cinemasquid.com/blu-ray/tools/bdinfo
  13.  
  14. INCLUDES FORUMS REPORT FOR:
  15.   AVS Forum Blu-ray Audio and Video Specifications Thread
  16.     http://www.avsforum.com/avs-vb/showthread.php?t=1155731
  17.  
  18.  
  19. ********************
  20. PLAYLIST: 00004.MPLS
  21. ********************
  22.  
  23. <--- BEGIN FORUMS PASTE --->
  24. [code]
  25.                                                                                                                 Total   Video                                            
  26. Title                                                           Codec   Length  Movie Size      Disc Size       Bitrate Bitrate Main Audio Track                          Secondary Audio Track
  27. -----                                                           ------  ------- --------------  --------------  ------- ------- ------------------                        ---------------------
  28. 00004.MPLS                                                      AVC     2:42:09 37,266,001,920  38,630,519,859  30.64   26.99   DTS-HD Master 2.0 2079Kbps (48kHz/24-bit)
  29. [/code]
  30.  
  31. [code]
  32.  
  33. DISC INFO:
  34.  
  35. Disc Title:     EDITH_ET_MARCEL
  36. Disc Size:      38,630,519,859 bytes
  37. Protection:     AACS
  38. BD-Java:        No
  39. Extras:         50Hz Content
  40. BDInfo:         0.7.3.3
  41.  
  42. PLAYLIST REPORT:
  43.  
  44. Name:                   00004.MPLS
  45. Length:                 2:42:09.291 (h:m:s.ms)
  46. Size:                   37,266,001,920 bytes
  47. Total Bitrate:          30.64 Mbps
  48.  
  49. VIDEO:
  50.  
  51. Codec                   Bitrate             Description    
  52. -----                   -------             -----------    
  53. MPEG-4 AVC Video        26990 kbps          1080p / 24 fps / 16:9 / High Profile 4.1
  54.  
  55. AUDIO:
  56.  
  57. Codec                           Language        Bitrate         Description    
  58. -----                           --------        -------         -----------    
  59. DTS-HD Master Audio             French          2079 kbps       2.0 / 48 kHz / 2079 kbps / 24-bit (DTS Core: 2.0 / 48 kHz / 1509 kbps / 24-bit)
  60.  
  61. FILES:
  62.  
  63. Name            Time In         Length          Size            Total Bitrate  
  64. ----            -------         ------          ----            -------------  
  65. 00002.M2TS      0:00:00.000     1:32:37.958     21,284,438,016  30,636          
  66. 00020.M2TS      1:32:37.958     1:09:31.333     15,981,563,904  30,650          
  67.  
  68. CHAPTERS:
  69.  
  70. Number          Time In         Length          Avg Video Rate  Max 1-Sec Rate  Max 1-Sec Time  Max 5-Sec Rate  Max 5-Sec Time  Max 10Sec Rate  Max 10Sec Time  Avg Frame Size  Max Frame Size  Max Frame Time  
  71. ------          -------         ------          --------------  --------------  --------------  --------------  --------------  --------------  --------------  --------------  --------------  --------------  
  72. 1               0:00:00.000     0:17:31.833     26,302 kbps     36,423 kbps     00:15:39.416    35,787 kbps     00:15:40.208    35,237 kbps     00:02:57.833    136,984 bytes   313,382 bytes   00:12:04.291    
  73. 2               0:17:31.833     0:10:10.791     26,830 kbps     37,527 kbps     00:21:07.833    36,011 kbps     00:19:05.333    35,898 kbps     00:19:03.208    139,737 bytes   327,135 bytes   00:20:39.791    
  74. 3               0:27:42.625     0:13:32.375     29,289 kbps     37,262 kbps     00:38:14.666    36,092 kbps     00:38:16.875    35,895 kbps     00:38:00.791    152,547 bytes   365,366 bytes   00:36:29.083    
  75. 4               0:41:15.000     0:10:59.791     26,018 kbps     37,199 kbps     00:45:33.583    36,051 kbps     00:45:39.333    35,622 kbps     00:45:30.458    135,510 bytes   335,371 bytes   00:45:44.208    
  76. 5               0:52:14.791     0:12:57.208     27,329 kbps     36,720 kbps     00:56:30.375    35,139 kbps     01:00:23.666    34,773 kbps     01:00:24.041    142,339 bytes   359,146 bytes   01:01:08.083    
  77. 6               1:05:12.000     0:13:59.000     25,881 kbps     36,514 kbps     01:12:52.916    35,077 kbps     01:14:31.208    34,949 kbps     01:14:30.541    134,799 bytes   373,938 bytes   01:14:25.041    
  78. 7               1:19:11.000     0:13:26.958     27,313 kbps     37,076 kbps     01:23:48.958    35,899 kbps     01:27:15.208    34,609 kbps     01:23:40.666    142,253 bytes   340,892 bytes   01:26:27.166    
  79. 8               1:32:37.958     0:15:45.500     31,131 kbps     38,094 kbps     01:46:43.041    36,205 kbps     01:41:46.083    35,977 kbps     01:41:41.041    162,141 bytes   323,897 bytes   01:48:23.458    
  80. 9               1:48:23.458     0:15:58.500     26,516 kbps     37,150 kbps     02:03:43.041    36,040 kbps     02:03:09.500    35,901 kbps     02:03:24.041    138,104 bytes   370,201 bytes   02:03:00.083    
  81. 10              2:04:21.958     0:12:40.583     28,571 kbps     37,556 kbps     02:16:54.041    36,056 kbps     02:16:50.125    35,924 kbps     02:04:25.250    148,805 bytes   347,269 bytes   02:04:25.291    
  82. 11              2:17:02.541     0:11:41.666     28,230 kbps     37,792 kbps     02:23:21.291    36,035 kbps     02:21:08.958    35,892 kbps     02:20:53.541    147,031 bytes   322,757 bytes   02:21:07.333    
  83. 12              2:28:44.208     0:13:25.083     20,123 kbps     37,541 kbps     02:30:06.000    36,119 kbps     02:30:02.083    35,857 kbps     02:35:08.625    104,812 bytes   346,965 bytes   02:34:43.791    
  84.  
  85. STREAM DIAGNOSTICS:
  86.  
  87. File            PID             Type            Codec           Language                Seconds                 Bitrate                 Bytes           Packets        
  88. ----            ---             ----            -----           --------                --------------          --------------          -------------   -----          
  89. 00002.M2TS      4113 (0x1011)   0x1B            AVC                                     5557.792                26,990                  18,750,718,860  101,983,928    
  90. 00002.M2TS      4352 (0x1100)   0x86            DTS-HD MA       fra (French)            5557.792                2,076                   1,442,268,060   8,686,280      
  91. 00020.M2TS      4113 (0x1011)   0x1B            AVC                                     4171.167                26,993                  14,073,842,833  76,546,549      
  92. 00020.M2TS      4352 (0x1100)   0x86            DTS-HD MA       fra (French)            4171.167                2,082                   1,085,767,728   6,551,019      
  93.  
  94. [/code]
  95. <---- END FORUMS PASTE ---->
  96.  
  97. QUICK SUMMARY:
  98.  
  99. Disc Title: EDITH_ET_MARCEL
  100. Disc Size: 38,630,519,859 bytes
  101. Protection: AACS
  102. BD-Java: No
  103. Playlist: 00004.MPLS
  104. Size: 37,266,001,920 bytes
  105. Length: 2:42:09.291
  106. Total Bitrate: 30.64 Mbps
  107. Video: MPEG-4 AVC Video / 26990 kbps / 1080p / 24 fps / 16:9 / High Profile 4.1
  108. Audio: French / DTS-HD Master Audio / 2.0 / 48 kHz / 2079 kbps / 24-bit (DTS Core: 2.0 / 48 kHz / 1509 kbps / 24-bit)
  109.  
  110.  
  111. ********************
  112. PLAYLIST: 00001.MPLS
  113. ********************
  114.  
  115. <--- BEGIN FORUMS PASTE --->
  116. [code]
  117.                                                                                                                 Total   Video                                            
  118. Title                                                           Codec   Length  Movie Size      Disc Size       Bitrate Bitrate Main Audio Track                          Secondary Audio Track
  119. -----                                                           ------  ------- --------------  --------------  ------- ------- ------------------                        ---------------------
  120. 00001.MPLS                                                      AVC     1:32:37 21,284,438,016  38,630,519,859  30.64   26.99   DTS-HD Master 2.0 2076Kbps (48kHz/24-bit)
  121. [/code]
  122.  
  123. [code]
  124.  
  125. DISC INFO:
  126.  
  127. Disc Title:     EDITH_ET_MARCEL
  128. Disc Size:      38,630,519,859 bytes
  129. Protection:     AACS
  130. BD-Java:        No
  131. Extras:         50Hz Content
  132. BDInfo:         0.7.3.3
  133.  
  134. PLAYLIST REPORT:
  135.  
  136. Name:                   00001.MPLS
  137. Length:                 1:32:37.958 (h:m:s.ms)
  138. Size:                   21,284,438,016 bytes
  139. Total Bitrate:          30.64 Mbps
  140.  
  141. VIDEO:
  142.  
  143. Codec                   Bitrate             Description    
  144. -----                   -------             -----------    
  145. MPEG-4 AVC Video        26989 kbps          1080p / 24 fps / 16:9 / High Profile 4.1
  146.  
  147. AUDIO:
  148.  
  149. Codec                           Language        Bitrate         Description    
  150. -----                           --------        -------         -----------    
  151. DTS-HD Master Audio             French          2076 kbps       2.0 / 48 kHz / 2076 kbps / 24-bit (DTS Core: 2.0 / 48 kHz / 1509 kbps / 24-bit)
  152.  
  153. FILES:
  154.  
  155. Name            Time In         Length          Size            Total Bitrate  
  156. ----            -------         ------          ----            -------------  
  157. 00002.M2TS      0:00:00.000     1:32:37.958     21,284,438,016  30,636          
  158.  
  159. CHAPTERS:
  160.  
  161. Number          Time In         Length          Avg Video Rate  Max 1-Sec Rate  Max 1-Sec Time  Max 5-Sec Rate  Max 5-Sec Time  Max 10Sec Rate  Max 10Sec Time  Avg Frame Size  Max Frame Size  Max Frame Time  
  162. ------          -------         ------          --------------  --------------  --------------  --------------  --------------  --------------  --------------  --------------  --------------  --------------  
  163. 1               0:00:00.000     0:17:31.833     26,302 kbps     36,423 kbps     00:15:39.416    35,787 kbps     00:15:40.208    35,237 kbps     00:02:57.833    136,984 bytes   313,382 bytes   00:12:04.291    
  164. 2               0:17:31.833     0:10:10.791     26,830 kbps     37,527 kbps     00:21:07.833    36,011 kbps     00:19:05.333    35,898 kbps     00:19:03.208    139,737 bytes   327,135 bytes   00:20:39.791    
  165. 3               0:27:42.625     0:13:32.375     29,289 kbps     37,262 kbps     00:38:14.666    36,092 kbps     00:38:16.875    35,895 kbps     00:38:00.791    152,547 bytes   365,366 bytes   00:36:29.083    
  166. 4               0:41:15.000     0:10:59.791     26,018 kbps     37,199 kbps     00:45:33.583    36,051 kbps     00:45:39.333    35,622 kbps     00:45:30.458    135,510 bytes   335,371 bytes   00:45:44.208    
  167. 5               0:52:14.791     0:12:57.208     27,329 kbps     36,720 kbps     00:56:30.375    35,139 kbps     01:00:23.666    34,773 kbps     01:00:24.041    142,339 bytes   359,146 bytes   01:01:08.083    
  168. 6               1:05:12.000     0:13:59.000     25,881 kbps     36,514 kbps     01:12:52.916    35,077 kbps     01:14:31.208    34,949 kbps     01:14:30.541    134,799 bytes   373,938 bytes   01:14:25.041    
  169. 7               1:19:11.000     0:13:26.958     27,310 kbps     37,076 kbps     01:23:48.958    35,899 kbps     01:27:15.208    34,609 kbps     01:23:40.666    142,249 bytes   340,892 bytes   01:26:27.166    
  170.  
  171. STREAM DIAGNOSTICS:
  172.  
  173. File            PID             Type            Codec           Language                Seconds                 Bitrate                 Bytes           Packets        
  174. ----            ---             ----            -----           --------                --------------          --------------          -------------   -----          
  175. 00002.M2TS      4113 (0x1011)   0x1B            AVC                                     5557.792                26,990                  18,750,718,860  101,983,928    
  176. 00002.M2TS      4352 (0x1100)   0x86            DTS-HD MA       fra (French)            5557.792                2,076                   1,442,268,060   8,686,280      
  177.  
  178. [/code]
  179. <---- END FORUMS PASTE ---->
  180.  
  181. QUICK SUMMARY:
  182.  
  183. Disc Title: EDITH_ET_MARCEL
  184. Disc Size: 38,630,519,859 bytes
  185. Protection: AACS
  186. BD-Java: No
  187. Playlist: 00001.MPLS
  188. Size: 21,284,438,016 bytes
  189. Length: 1:32:37.958
  190. Total Bitrate: 30.64 Mbps
  191. Video: MPEG-4 AVC Video / 26989 kbps / 1080p / 24 fps / 16:9 / High Profile 4.1
  192. Audio: French / DTS-HD Master Audio / 2.0 / 48 kHz / 2076 kbps / 24-bit (DTS Core: 2.0 / 48 kHz / 1509 kbps / 24-bit)
  193.  
  194.  
  195. ********************
  196. PLAYLIST: 00021.MPLS
  197. ********************
  198.  
  199. <--- BEGIN FORUMS PASTE --->
  200. [code]
  201.                                                                                                                 Total   Video                                            
  202. Title                                                           Codec   Length  Movie Size      Disc Size       Bitrate Bitrate Main Audio Track                          Secondary Audio Track
  203. -----                                                           ------  ------- --------------  --------------  ------- ------- ------------------                        ---------------------
  204. 00021.MPLS                                                      AVC     1:09:31 15,981,563,904  38,630,519,859  30.65   26.99   DTS-HD Master 2.0 2082Kbps (48kHz/24-bit)
  205. [/code]
  206.  
  207. [code]
  208.  
  209. DISC INFO:
  210.  
  211. Disc Title:     EDITH_ET_MARCEL
  212. Disc Size:      38,630,519,859 bytes
  213. Protection:     AACS
  214. BD-Java:        No
  215. Extras:         50Hz Content
  216. BDInfo:         0.7.3.3
  217.  
  218. PLAYLIST REPORT:
  219.  
  220. Name:                   00021.MPLS
  221. Length:                 1:09:31.333 (h:m:s.ms)
  222. Size:                   15,981,563,904 bytes
  223. Total Bitrate:          30.65 Mbps
  224.  
  225. VIDEO:
  226.  
  227. Codec                   Bitrate             Description    
  228. -----                   -------             -----------    
  229. MPEG-4 AVC Video        26992 kbps          1080p / 24 fps / 16:9 / High Profile 4.1
  230.  
  231. AUDIO:
  232.  
  233. Codec                           Language        Bitrate         Description    
  234. -----                           --------        -------         -----------    
  235. DTS-HD Master Audio             French          2082 kbps       2.0 / 48 kHz / 2082 kbps / 24-bit (DTS Core: 2.0 / 48 kHz / 1509 kbps / 24-bit)
  236.  
  237. FILES:
  238.  
  239. Name            Time In         Length          Size            Total Bitrate  
  240. ----            -------         ------          ----            -------------  
  241. 00020.M2TS      0:00:00.000     1:09:31.333     15,981,563,904  30,650          
  242.  
  243. CHAPTERS:
  244.  
  245. Number          Time In         Length          Avg Video Rate  Max 1-Sec Rate  Max 1-Sec Time  Max 5-Sec Rate  Max 5-Sec Time  Max 10Sec Rate  Max 10Sec Time  Avg Frame Size  Max Frame Size  Max Frame Time  
  246. ------          -------         ------          --------------  --------------  --------------  --------------  --------------  --------------  --------------  --------------  --------------  --------------  
  247. 1               0:00:00.000     0:15:45.500     31,133 kbps     38,094 kbps     00:14:05.083    36,205 kbps     00:09:08.125    35,977 kbps     00:09:03.083    162,144 bytes   323,897 bytes   00:15:45.500    
  248. 2               0:15:45.500     0:15:58.500     26,516 kbps     37,150 kbps     00:31:05.083    36,040 kbps     00:30:31.541    35,901 kbps     00:30:46.083    138,104 bytes   370,201 bytes   00:30:22.125    
  249. 3               0:31:44.000     0:12:40.583     28,571 kbps     37,556 kbps     00:44:16.083    36,056 kbps     00:44:12.166    35,924 kbps     00:31:47.291    148,805 bytes   347,269 bytes   00:31:47.333    
  250. 4               0:44:24.583     0:11:41.666     28,230 kbps     37,792 kbps     00:50:43.333    36,035 kbps     00:48:31.000    35,892 kbps     00:48:15.583    147,031 bytes   322,757 bytes   00:48:29.375    
  251. 5               0:56:06.250     0:13:25.083     20,123 kbps     37,541 kbps     00:57:28.041    36,119 kbps     00:57:24.125    35,857 kbps     01:02:30.666    104,812 bytes   346,965 bytes   01:02:05.833    
  252.  
  253. STREAM DIAGNOSTICS:
  254.  
  255. File            PID             Type            Codec           Language                Seconds                 Bitrate                 Bytes           Packets        
  256. ----            ---             ----            -----           --------                --------------          --------------          -------------   -----          
  257. 00020.M2TS      4113 (0x1011)   0x1B            AVC                                     4171.167                26,993                  14,073,842,833  76,546,549      
  258. 00020.M2TS      4352 (0x1100)   0x86            DTS-HD MA       fra (French)            4171.167                2,082                   1,085,767,728   6,551,019      
  259.  
  260. [/code]
  261. <---- END FORUMS PASTE ---->
  262.  
  263. QUICK SUMMARY:
  264.  
  265. Disc Title: EDITH_ET_MARCEL
  266. Disc Size: 38,630,519,859 bytes
  267. Protection: AACS
  268. BD-Java: No
  269. Playlist: 00021.MPLS
  270. Size: 15,981,563,904 bytes
  271. Length: 1:09:31.333
  272. Total Bitrate: 30.65 Mbps
  273. Video: MPEG-4 AVC Video / 26992 kbps / 1080p / 24 fps / 16:9 / High Profile 4.1
  274. Audio: French / DTS-HD Master Audio / 2.0 / 48 kHz / 2082 kbps / 24-bit (DTS Core: 2.0 / 48 kHz / 1509 kbps / 24-bit)
  275.  
  276.  
  277. ********************
  278. PLAYLIST: 00003.MPLS
  279. ********************
  280.  
  281. <--- BEGIN FORUMS PASTE --->
  282. [code]
  283.                                                                                                                 Total   Video                                            
  284. Title                                                           Codec   Length  Movie Size      Disc Size       Bitrate Bitrate Main Audio Track                          Secondary Audio Track
  285. -----                                                           ------  ------- --------------  --------------  ------- ------- ------------------                        ---------------------
  286. 00003.MPLS                                                      MPEG-2  0:14:26 655,939,584     38,630,519,859  6.06    5.50    DD AC3 2.0 192Kbps                        
  287. [/code]
  288.  
  289. [code]
  290.  
  291. DISC INFO:
  292.  
  293. Disc Title:     EDITH_ET_MARCEL
  294. Disc Size:      38,630,519,859 bytes
  295. Protection:     AACS
  296. BD-Java:        No
  297. Extras:         50Hz Content
  298. BDInfo:         0.7.3.3
  299.  
  300. PLAYLIST REPORT:
  301.  
  302. Name:                   00003.MPLS
  303. Length:                 0:14:26.640 (h:m:s.ms)
  304. Size:                   655,939,584 bytes
  305. Total Bitrate:          6.06 Mbps
  306.  
  307. VIDEO:
  308.  
  309. Codec                   Bitrate             Description    
  310. -----                   -------             -----------    
  311. MPEG-2 Video            5502 kbps           576i / 25 fps / 16:9
  312.  
  313. AUDIO:
  314.  
  315. Codec                           Language        Bitrate         Description    
  316. -----                           --------        -------         -----------    
  317. Dolby Digital Audio             French          192 kbps        2.0 / 48 kHz / 192 kbps
  318.  
  319. FILES:
  320.  
  321. Name            Time In         Length          Size            Total Bitrate  
  322. ----            -------         ------          ----            -------------  
  323. 00004.M2TS      0:00:00.000     0:14:26.640     655,939,584     6,055          
  324.  
  325. CHAPTERS:
  326.  
  327. Number          Time In         Length          Avg Video Rate  Max 1-Sec Rate  Max 1-Sec Time  Max 5-Sec Rate  Max 5-Sec Time  Max 10Sec Rate  Max 10Sec Time  Avg Frame Size  Max Frame Size  Max Frame Time  
  328. ------          -------         ------          --------------  --------------  --------------  --------------  --------------  --------------  --------------  --------------  --------------  --------------  
  329. 1               0:00:00.000     0:14:26.640     5,502 kbps      8,899 kbps      00:12:06.000    8,253 kbps      00:12:42.480    8,209 kbps      00:12:11.920    27,510 bytes    123,640 bytes   00:05:16.480    
  330.  
  331. STREAM DIAGNOSTICS:
  332.  
  333. File            PID             Type            Codec           Language                Seconds                 Bitrate                 Bytes           Packets        
  334. ----            ---             ----            -----           --------                --------------          --------------          -------------   -----          
  335. 00004.M2TS      4113 (0x1011)   0x02            MPEG-2                                  866.560                 5,503                   596,031,664     3,251,863      
  336. 00004.M2TS      4352 (0x1100)   0x81            AC3             fra (French)            866.560                 192                     20,799,744      135,415        
  337.  
  338. [/code]
  339. <---- END FORUMS PASTE ---->
  340.  
  341. QUICK SUMMARY:
  342.  
  343. Disc Title: EDITH_ET_MARCEL
  344. Disc Size: 38,630,519,859 bytes
  345. Protection: AACS
  346. BD-Java: No
  347. Playlist: 00003.MPLS
  348. Size: 655,939,584 bytes
  349. Length: 0:14:26.640
  350. Total Bitrate: 6.06 Mbps
  351. Video: MPEG-2 Video / 5502 kbps / 576i / 25 fps / 16:9
  352. Audio: French / Dolby Digital Audio / 2.0 / 48 kHz / 192 kbps
  353.  
  354.  
  355. ********************
  356. PLAYLIST: 00019.MPLS
  357. ********************
  358.  
  359. <--- BEGIN FORUMS PASTE --->
  360. [code]
  361.                                                                                                                 Total   Video                                            
  362. Title                                                           Codec   Length  Movie Size      Disc Size       Bitrate Bitrate Main Audio Track                          Secondary Audio Track
  363. -----                                                           ------  ------- --------------  --------------  ------- ------- ------------------                        ---------------------
  364. 00019.MPLS                                                      MPEG-2  0:05:02 229,005,312     38,630,519,859  6.06    5.50    DD AC3 2.0 192Kbps                        
  365. [/code]
  366.  
  367. [code]
  368.  
  369. DISC INFO:
  370.  
  371. Disc Title:     EDITH_ET_MARCEL
  372. Disc Size:      38,630,519,859 bytes
  373. Protection:     AACS
  374. BD-Java:        No
  375. Extras:         50Hz Content
  376. BDInfo:         0.7.3.3
  377.  
  378. PLAYLIST REPORT:
  379.  
  380. Name:                   00019.MPLS
  381. Length:                 0:05:02.560 (h:m:s.ms)
  382. Size:                   229,005,312 bytes
  383. Total Bitrate:          6.06 Mbps
  384.  
  385. VIDEO:
  386.  
  387. Codec                   Bitrate             Description    
  388. -----                   -------             -----------    
  389. MPEG-2 Video            5502 kbps           576i / 25 fps / 4:3
  390.  
  391. AUDIO:
  392.  
  393. Codec                           Language        Bitrate         Description    
  394. -----                           --------        -------         -----------    
  395. Dolby Digital Audio             French          192 kbps        2.0 / 48 kHz / 192 kbps
  396.  
  397. FILES:
  398.  
  399. Name            Time In         Length          Size            Total Bitrate  
  400. ----            -------         ------          ----            -------------  
  401. 00018.M2TS      0:00:00.000     0:05:02.560     229,005,312     6,055          
  402.  
  403. CHAPTERS:
  404.  
  405. Number          Time In         Length          Avg Video Rate  Max 1-Sec Rate  Max 1-Sec Time  Max 5-Sec Rate  Max 5-Sec Time  Max 10Sec Rate  Max 10Sec Time  Avg Frame Size  Max Frame Size  Max Frame Time  
  406. ------          -------         ------          --------------  --------------  --------------  --------------  --------------  --------------  --------------  --------------  --------------  --------------  
  407. 1               0:00:00.000     0:05:02.560     5,502 kbps      9,053 kbps      00:00:37.000    8,265 kbps      00:00:37.000    8,160 kbps      00:00:37.000    27,510 bytes    153,432 bytes   00:00:37.040    
  408.  
  409. STREAM DIAGNOSTICS:
  410.  
  411. File            PID             Type            Codec           Language                Seconds                 Bitrate                 Bytes           Packets        
  412. ----            ---             ----            -----           --------                --------------          --------------          -------------   -----          
  413. 00018.M2TS      4113 (0x1011)   0x02            MPEG-2                                  302.440                 5,504                   208,085,644     1,135,296      
  414. 00018.M2TS      4352 (0x1100)   0x81            AC3             fra (French)            302.440                 192                     7,261,440       47,275          
  415.  
  416. [/code]
  417. <---- END FORUMS PASTE ---->
  418.  
  419. QUICK SUMMARY:
  420.  
  421. Disc Title: EDITH_ET_MARCEL
  422. Disc Size: 38,630,519,859 bytes
  423. Protection: AACS
  424. BD-Java: No
  425. Playlist: 00019.MPLS
  426. Size: 229,005,312 bytes
  427. Length: 0:05:02.560
  428. Total Bitrate: 6.06 Mbps
  429. Video: MPEG-2 Video / 5502 kbps / 576i / 25 fps / 4:3
  430. Audio: French / Dolby Digital Audio / 2.0 / 48 kHz / 192 kbps
  431.  
  432.  
  433. ********************
  434. PLAYLIST: 00005.MPLS
  435. ********************
  436.  
  437. <--- BEGIN FORUMS PASTE --->
  438. [code]
  439.                                                                                                                 Total   Video                                            
  440. Title                                                           Codec   Length  Movie Size      Disc Size       Bitrate Bitrate Main Audio Track                          Secondary Audio Track
  441. -----                                                           ------  ------- --------------  --------------  ------- ------- ------------------                        ---------------------
  442. 00005.MPLS                                                      MPEG-2  0:00:57 237,361,152     38,630,519,859  33.10   29.88   LPCM 2.0 1536Kbps (48kHz/16-bit)          
  443. [/code]
  444.  
  445. [code]
  446.  
  447. DISC INFO:
  448.  
  449. Disc Title:     EDITH_ET_MARCEL
  450. Disc Size:      38,630,519,859 bytes
  451. Protection:     AACS
  452. BD-Java:        No
  453. Extras:         50Hz Content
  454. BDInfo:         0.7.3.3
  455.  
  456. PLAYLIST REPORT:
  457.  
  458. Name:                   00005.MPLS
  459. Length:                 0:00:57.375 (h:m:s.ms)
  460. Size:                   237,361,152 bytes
  461. Total Bitrate:          33.10 Mbps
  462.  
  463. VIDEO:
  464.  
  465. Codec                   Bitrate             Description    
  466. -----                   -------             -----------    
  467. MPEG-2 Video            29881 kbps          1080p / 24 fps / 16:9
  468.  
  469. AUDIO:
  470.  
  471. Codec                           Language        Bitrate         Description    
  472. -----                           --------        -------         -----------    
  473. LPCM Audio                      French          1536 kbps       2.0 / 48 kHz / 1536 kbps / 16-bit
  474.  
  475. FILES:
  476.  
  477. Name            Time In         Length          Size            Total Bitrate  
  478. ----            -------         ------          ----            -------------  
  479. 00005.M2TS      0:00:00.000     0:00:57.375     237,361,152     33,096          
  480.  
  481. CHAPTERS:
  482.  
  483. Number          Time In         Length          Avg Video Rate  Max 1-Sec Rate  Max 1-Sec Time  Max 5-Sec Rate  Max 5-Sec Time  Max 10Sec Rate  Max 10Sec Time  Avg Frame Size  Max Frame Size  Max Frame Time  
  484. ------          -------         ------          --------------  --------------  --------------  --------------  --------------  --------------  --------------  --------------  --------------  --------------  
  485. 1               0:00:00.000     0:00:57.375     29,881 kbps     41,246 kbps     00:00:35.958    36,005 kbps     00:00:45.208    34,780 kbps     00:00:30.458    155,630 bytes   780,236 bytes   00:00:38.500    
  486.  
  487. STREAM DIAGNOSTICS:
  488.  
  489. File            PID             Type            Codec           Language                Seconds                 Bitrate                 Bytes           Packets        
  490. ----            ---             ----            -----           --------                --------------          --------------          -------------   -----          
  491. 00005.M2TS      4113 (0x1011)   0x02            MPEG-2                                  57.250                  29,946                  214,302,172     1,165,477      
  492. 00005.M2TS      4352 (0x1100)   0x80            LPCM            fra (French)            57.250                  1,546                   11,061,900      68,850          
  493.  
  494. [/code]
  495. <---- END FORUMS PASTE ---->
  496.  
  497. QUICK SUMMARY:
  498.  
  499. Disc Title: EDITH_ET_MARCEL
  500. Disc Size: 38,630,519,859 bytes
  501. Protection: AACS
  502. BD-Java: No
  503. Playlist: 00005.MPLS
  504. Size: 237,361,152 bytes
  505. Length: 0:00:57.375
  506. Total Bitrate: 33.10 Mbps
  507. Video: MPEG-2 Video / 29881 kbps / 1080p / 24 fps / 16:9
  508. Audio: French / LPCM Audio / 2.0 / 48 kHz / 1536 kbps / 16-bit
  509.  
  510.  
  511. ********************
  512. PLAYLIST: 00008.MPLS
  513. ********************
  514.  
  515. <--- BEGIN FORUMS PASTE --->
  516. [code]
  517.                                                                                                                 Total   Video                                            
  518. Title                                                           Codec   Length  Movie Size      Disc Size       Bitrate Bitrate Main Audio Track                          Secondary Audio Track
  519. -----                                                           ------  ------- --------------  --------------  ------- ------- ------------------                        ---------------------
  520. 00008.MPLS                                                      MPEG-2  0:00:57 237,318,144     38,630,519,859  33.09   29.87   LPCM 2.0 1536Kbps (48kHz/16-bit)          
  521. [/code]
  522.  
  523. [code]
  524.  
  525. DISC INFO:
  526.  
  527. Disc Title:     EDITH_ET_MARCEL
  528. Disc Size:      38,630,519,859 bytes
  529. Protection:     AACS
  530. BD-Java:        No
  531. Extras:         50Hz Content
  532. BDInfo:         0.7.3.3
  533.  
  534. PLAYLIST REPORT:
  535.  
  536. Name:                   00008.MPLS
  537. Length:                 0:00:57.375 (h:m:s.ms)
  538. Size:                   237,318,144 bytes
  539. Total Bitrate:          33.09 Mbps
  540.  
  541. VIDEO:
  542.  
  543. Codec                   Bitrate             Description    
  544. -----                   -------             -----------    
  545. MPEG-2 Video            29874 kbps          1080p / 24 fps / 16:9
  546.  
  547. AUDIO:
  548.  
  549. Codec                           Language        Bitrate         Description    
  550. -----                           --------        -------         -----------    
  551. LPCM Audio                      French          1536 kbps       2.0 / 48 kHz / 1536 kbps / 16-bit
  552.  
  553. FILES:
  554.  
  555. Name            Time In         Length          Size            Total Bitrate  
  556. ----            -------         ------          ----            -------------  
  557. 00008.M2TS      0:00:00.000     0:00:57.375     237,318,144     33,090          
  558.  
  559. CHAPTERS:
  560.  
  561. Number          Time In         Length          Avg Video Rate  Max 1-Sec Rate  Max 1-Sec Time  Max 5-Sec Rate  Max 5-Sec Time  Max 10Sec Rate  Max 10Sec Time  Avg Frame Size  Max Frame Size  Max Frame Time  
  562. ------          -------         ------          --------------  --------------  --------------  --------------  --------------  --------------  --------------  --------------  --------------  --------------  
  563. 1               0:00:00.000     0:00:57.375     29,874 kbps     40,856 kbps     00:00:35.958    35,973 kbps     00:00:45.208    34,745 kbps     00:00:30.458    155,592 bytes   784,351 bytes   00:00:38.000    
  564.  
  565. STREAM DIAGNOSTICS:
  566.  
  567. File            PID             Type            Codec           Language                Seconds                 Bitrate                 Bytes           Packets        
  568. ----            ---             ----            -----           --------                --------------          --------------          -------------   -----          
  569. 00008.M2TS      4113 (0x1011)   0x02            MPEG-2                                  57.250                  29,939                  214,249,586     1,165,221      
  570. 00008.M2TS      4352 (0x1100)   0x80            LPCM            fra (French)            57.250                  1,546                   11,061,900      68,850          
  571.  
  572. [/code]
  573. <---- END FORUMS PASTE ---->
  574.  
  575. QUICK SUMMARY:
  576.  
  577. Disc Title: EDITH_ET_MARCEL
  578. Disc Size: 38,630,519,859 bytes
  579. Protection: AACS
  580. BD-Java: No
  581. Playlist: 00008.MPLS
  582. Size: 237,318,144 bytes
  583. Length: 0:00:57.375
  584. Total Bitrate: 33.09 Mbps
  585. Video: MPEG-2 Video / 29874 kbps / 1080p / 24 fps / 16:9
  586. Audio: French / LPCM Audio / 2.0 / 48 kHz / 1536 kbps / 16-bit
RAW Paste Data
We use cookies for various purposes including analytics. By continuing to use Pastebin, you agree to our use of cookies as described in the Cookies Policy. OK, I Understand
 
Top