SHARE
TWEET

Untitled

mft39anton Jul 9th, 2018 55 Never
Not a member of Pastebin yet? Sign Up, it unlocks many cool features!
  1. Disc Title:     GUNS_N_ROSES_Appetite_For_Destruction
  2. Disc Size:      23,877,540,004 bytes
  3. Protection:     AACS
  4. BD-Java:        Yes
  5. BDInfo:         0.5.8
  6.  
  7. Notes:          
  8.  
  9. BDINFO HOME:
  10.   Cinema Squid
  11.     http://www.cinemasquid.com/blu-ray/tools/bdinfo
  12.  
  13. INCLUDES FORUMS REPORT FOR:
  14.   AVS Forum Blu-ray Audio and Video Specifications Thread
  15.     http://www.avsforum.com/avs-vb/showthread.php?t=1155731
  16.  
  17.  
  18. ********************
  19. PLAYLIST: 00002.MPLS
  20. ********************
  21.  
  22. <--- BEGIN FORUMS PASTE --->
  23. [code]
  24.                                                                                                                 Total   Video                                            
  25. Title                                                           Codec   Length  Movie Size      Disc Size       Bitrate Bitrate Main Audio Track                          Secondary Audio Track
  26. -----                                                           ------  ------- --------------  --------------  ------- ------- ------------------                        ---------------------
  27. 00002.MPLS                                                      AVC     0:53:39 12,662,900,736  23,877,540,004  31.46   6.36    DTS-HD Master 5.1 8819Kbps (96kHz/24-bit) Dolby TrueHD 5.1 8224Kbps (96kHz/24-bit)
  28. [/code]
  29.  
  30. [code]
  31.  
  32. DISC INFO:
  33.  
  34. Disc Title:     GUNS_N_ROSES_Appetite_For_Destruction
  35. Disc Size:      23,877,540,004 bytes
  36. Protection:     AACS
  37. BD-Java:        Yes
  38. BDInfo:         0.5.8
  39.  
  40. PLAYLIST REPORT:
  41.  
  42. Name:                   00002.MPLS
  43. Length:                 0:53:39.674 (h:m:s.ms)
  44. Size:                   12,662,900,736 bytes
  45. Total Bitrate:          31.46 Mbps
  46.  
  47. VIDEO:
  48.  
  49. Codec                   Bitrate             Description    
  50. -----                   -------             -----------    
  51. MPEG-4 AVC Video        6360 kbps           1080p / 23.976 fps / 16:9 / High Profile 4.1
  52. MPEG-4 AVC Video        19 kbps             480p / 23.976 fps / 16:9 / High Profile 3.2
  53.  
  54. AUDIO:
  55.  
  56. Codec                           Language        Bitrate         Description    
  57. -----                           --------        -------         -----------    
  58. DTS-HD Master Audio             English         8819 kbps       5.1 / 96 kHz / 8819 kbps / 24-bit (DTS Core: 6.1 / 48 kHz / 1509 kbps / 24-bit)
  59. Dolby TrueHD Audio              English         8224 kbps       5.1 / 96 kHz / 8224 kbps / 24-bit (AC3 Embedded: 5.1 / 48 kHz / 640 kbps)
  60. LPCM Audio                      English         4608 kbps       2.0 / 96 kHz / 4608 kbps / 24-bit
  61.  
  62. FILES:
  63.  
  64. Name            Time In         Length          Size            Total Bitrate  
  65. ----            -------         ------          ----            -------------  
  66. 00002.M2TS      0:00:00.000     0:53:39.674     12,662,900,736  31,464          
  67.  
  68. CHAPTERS:
  69.  
  70. Number          Time In         Length          Avg Video Rate  Max 1-Sec Rate  Max 1-Sec Time  Max 5-Sec Rate  Max 5-Sec Time  Max 10Sec Rate  Max 10Sec Time  Avg Frame Size  Max Frame Size  Max Frame Time  
  71. ------          -------         ------          --------------  --------------  --------------  --------------  --------------  --------------  --------------  --------------  --------------  --------------  
  72. 1               0:00:00.000     0:53:39.674     6,360 kbps      15,115 kbps     00:38:15.001    9,218 kbps      00:34:45.625    8,786 kbps      00:17:26.503    33,161 bytes    161,281 bytes   00:31:17.250    
  73.  
  74. STREAM DIAGNOSTICS:
  75.  
  76. File            PID             Type            Codec           Language                Seconds                 Bitrate                 Bytes           Packets        
  77. ----            ---             ----            -----           --------                --------------          --------------          -------------   -----          
  78. 00002.M2TS      4113 (0x1011)   0x1B            AVC                                     3219.591                6,361                   2,559,797,225   13,957,058      
  79. 00002.M2TS      4352 (0x1100)   0x86            DTS-HD MA       eng (English)           3219.591                8,819                   3,549,335,712   19,791,905      
  80. 00002.M2TS      4353 (0x1101)   0x83            TrueHD          eng (English)           3219.591                8,864                   3,567,312,014   21,676,514      
  81. 00002.M2TS      4354 (0x1102)   0x80            LPCM            eng (English)           3219.591                4,614                   1,857,088,168   10,302,847      
  82. 00002.M2TS      6912 (0x1B00)   0x1B            AVC                                     3219.591                19                      7,530,779       80,703          
  83.  
  84. [/code]
  85. <---- END FORUMS PASTE ---->
  86.  
  87. QUICK SUMMARY:
  88.  
  89. Disc Title: GUNS_N_ROSES_Appetite_For_Destruction
  90. Disc Size: 23,877,540,004 bytes
  91. Protection: AACS
  92. BD-Java: Yes
  93. Playlist: 00002.MPLS
  94. Size: 12,662,900,736 bytes
  95. Length: 0:53:39.674
  96. Total Bitrate: 31.46 Mbps
  97. Video: MPEG-4 AVC Video / 6360 kbps / 1080p / 23.976 fps / 16:9 / High Profile 4.1
  98. Video: MPEG-4 AVC Video / 19 kbps / 480p / 23.976 fps / 16:9 / High Profile 3.2
  99. Audio: English / DTS-HD Master Audio / 5.1 / 96 kHz / 8819 kbps / 24-bit (DTS Core: 6.1 / 48 kHz / 1509 kbps / 24-bit)
  100. Audio: English / Dolby TrueHD Audio / 5.1 / 96 kHz / 8224 kbps / 24-bit (AC3 Embedded: 5.1 / 48 kHz / 640 kbps)
  101. Audio: English / LPCM Audio / 2.0 / 96 kHz / 4608 kbps / 24-bit
  102.  
  103.  
  104. ********************
  105. PLAYLIST: 01002.MPLS
  106. ********************
  107.  
  108. <--- BEGIN FORUMS PASTE --->
  109. [code]
  110.                                                                                                                 Total   Video                                            
  111. Title                                                           Codec   Length  Movie Size      Disc Size       Bitrate Bitrate Main Audio Track                          Secondary Audio Track
  112. -----                                                           ------  ------- --------------  --------------  ------- ------- ------------------                        ---------------------
  113. 01002.MPLS                                                      AVC     0:53:39 12,662,900,736  23,877,540,004  31.46   6.36    DTS-HD Master 5.1 8819Kbps (96kHz/24-bit) Dolby TrueHD 5.1 8224Kbps (96kHz/24-bit)
  114. [/code]
  115.  
  116. [code]
  117.  
  118. DISC INFO:
  119.  
  120. Disc Title:     GUNS_N_ROSES_Appetite_For_Destruction
  121. Disc Size:      23,877,540,004 bytes
  122. Protection:     AACS
  123. BD-Java:        Yes
  124. BDInfo:         0.5.8
  125.  
  126. PLAYLIST REPORT:
  127.  
  128. Name:                   01002.MPLS
  129. Length:                 0:53:39.674 (h:m:s.ms)
  130. Size:                   12,662,900,736 bytes
  131. Total Bitrate:          31.46 Mbps
  132.  
  133. VIDEO:
  134.  
  135. Codec                   Bitrate             Description    
  136. -----                   -------             -----------    
  137. MPEG-4 AVC Video        6360 kbps           1080p / 23.976 fps / 16:9 / High Profile 4.1
  138. MPEG-4 AVC Video        19 kbps             480p / 23.976 fps / 16:9 / High Profile 3.2
  139.  
  140. AUDIO:
  141.  
  142. Codec                           Language        Bitrate         Description    
  143. -----                           --------        -------         -----------    
  144. DTS-HD Master Audio             English         8819 kbps       5.1 / 96 kHz / 8819 kbps / 24-bit (DTS Core: 6.1 / 48 kHz / 1509 kbps / 24-bit)
  145. Dolby TrueHD Audio              English         8224 kbps       5.1 / 96 kHz / 8224 kbps / 24-bit (AC3 Embedded: 5.1 / 48 kHz / 640 kbps)
  146. LPCM Audio                      English         4608 kbps       2.0 / 96 kHz / 4608 kbps / 24-bit
  147.  
  148. FILES:
  149.  
  150. Name            Time In         Length          Size            Total Bitrate  
  151. ----            -------         ------          ----            -------------  
  152. 00002.M2TS      0:00:00.000     0:53:39.674     12,662,900,736  31,464          
  153.  
  154. CHAPTERS:
  155.  
  156. Number          Time In         Length          Avg Video Rate  Max 1-Sec Rate  Max 1-Sec Time  Max 5-Sec Rate  Max 5-Sec Time  Max 10Sec Rate  Max 10Sec Time  Avg Frame Size  Max Frame Size  Max Frame Time  
  157. ------          -------         ------          --------------  --------------  --------------  --------------  --------------  --------------  --------------  --------------  --------------  --------------  
  158. 1               0:00:00.000     0:04:34.315     5,669 kbps      14,314 kbps     00:00:03.003    6,761 kbps      00:00:03.003    6,443 kbps      00:01:00.310    29,549 bytes    150,448 bytes   00:00:03.044    
  159. 2               0:04:34.315     0:03:20.533     5,603 kbps      10,051 kbps     00:04:34.732    6,784 kbps      00:04:34.732    6,160 kbps      00:06:52.078    29,213 bytes    118,476 bytes   00:07:45.047    
  160. 3               0:07:54.849     0:04:25.974     7,870 kbps      10,748 kbps     00:07:55.850    8,872 kbps      00:07:55.850    8,293 kbps      00:07:55.850    41,031 bytes    132,623 bytes   00:09:43.666    
  161. 4               0:12:20.823     0:04:18.174     5,682 kbps      8,801 kbps      00:14:24.154    6,631 kbps      00:12:21.782    6,148 kbps      00:12:21.782    29,624 bytes    132,515 bytes   00:15:52.284    
  162. 5               0:16:38.998     0:03:50.730     7,803 kbps      11,614 kbps     00:20:26.642    8,983 kbps      00:17:30.132    8,786 kbps      00:17:26.503    40,679 bytes    143,056 bytes   00:18:33.237    
  163. 6               0:20:29.728     0:06:45.404     5,554 kbps      8,416 kbps      00:20:30.812    7,389 kbps      00:20:30.354    6,867 kbps      00:20:30.020    28,958 bytes    154,116 bytes   00:23:32.202    
  164. 7               0:27:15.133     0:03:39.135     5,612 kbps      12,339 kbps     00:27:15.925    7,397 kbps      00:27:15.842    6,339 kbps      00:27:15.842    29,259 bytes    153,876 bytes   00:28:56.776    
  165. 8               0:30:54.269     0:03:49.938     5,513 kbps      9,135 kbps      00:30:56.062    6,606 kbps      00:31:14.706    6,206 kbps      00:31:09.701    28,742 bytes    161,281 bytes   00:31:17.250    
  166. 9               0:34:44.207     0:05:56.606     7,657 kbps      15,115 kbps     00:38:15.001    9,218 kbps      00:34:45.625    8,429 kbps      00:34:45.625    39,920 bytes    122,389 bytes   00:35:32.380    
  167. 10              0:40:40.813     0:03:16.487     5,860 kbps      9,110 kbps      00:41:21.479    7,211 kbps      00:40:41.272    6,803 kbps      00:43:16.677    30,551 bytes    153,571 bytes   00:43:20.389    
  168. 11              0:43:57.301     0:03:26.372     7,918 kbps      10,614 kbps     00:44:52.106    8,745 kbps      00:44:51.397    8,383 kbps      00:47:12.704    41,281 bytes    119,503 bytes   00:46:48.055    
  169. 12              0:47:23.674     0:06:14.540     5,804 kbps      9,028 kbps      00:53:34.628    7,111 kbps      00:48:45.339    6,700 kbps      00:51:58.281    30,261 bytes    132,704 bytes   00:48:19.187    
  170. 13              0:53:38.214     0:00:01.459     31 kbps         35 kbps         00:53:38.340    0 kbps          00:00:00.000    0 kbps          00:00:00.000    172 bytes       918 bytes       00:53:39.341    
  171.  
  172. STREAM DIAGNOSTICS:
  173.  
  174. File            PID             Type            Codec           Language                Seconds                 Bitrate                 Bytes           Packets        
  175. ----            ---             ----            -----           --------                --------------          --------------          -------------   -----          
  176. 00002.M2TS      4113 (0x1011)   0x1B            AVC                                     3219.591                6,361                   2,559,797,225   13,957,058      
  177. 00002.M2TS      4352 (0x1100)   0x86            DTS-HD MA       eng (English)           3219.591                8,819                   3,549,335,712   19,791,905      
  178. 00002.M2TS      4353 (0x1101)   0x83            TrueHD          eng (English)           3219.591                8,864                   3,567,312,014   21,676,514      
  179. 00002.M2TS      4354 (0x1102)   0x80            LPCM            eng (English)           3219.591                4,614                   1,857,088,168   10,302,847      
  180. 00002.M2TS      6912 (0x1B00)   0x1B            AVC                                     3219.591                19                      7,530,779       80,703          
  181.  
  182. [/code]
  183. <---- END FORUMS PASTE ---->
  184.  
  185. QUICK SUMMARY:
  186.  
  187. Disc Title: GUNS_N_ROSES_Appetite_For_Destruction
  188. Disc Size: 23,877,540,004 bytes
  189. Protection: AACS
  190. BD-Java: Yes
  191. Playlist: 01002.MPLS
  192. Size: 12,662,900,736 bytes
  193. Length: 0:53:39.674
  194. Total Bitrate: 31.46 Mbps
  195. Video: MPEG-4 AVC Video / 6360 kbps / 1080p / 23.976 fps / 16:9 / High Profile 4.1
  196. Video: MPEG-4 AVC Video / 19 kbps / 480p / 23.976 fps / 16:9 / High Profile 3.2
  197. Audio: English / DTS-HD Master Audio / 5.1 / 96 kHz / 8819 kbps / 24-bit (DTS Core: 6.1 / 48 kHz / 1509 kbps / 24-bit)
  198. Audio: English / Dolby TrueHD Audio / 5.1 / 96 kHz / 8224 kbps / 24-bit (AC3 Embedded: 5.1 / 48 kHz / 640 kbps)
  199. Audio: English / LPCM Audio / 2.0 / 96 kHz / 4608 kbps / 24-bit
  200.  
  201.  
  202. ********************
  203. PLAYLIST: 00004.MPLS
  204. ********************
  205.  
  206. <--- BEGIN FORUMS PASTE --->
  207. [code]
  208.                                                                                                                 Total   Video                                            
  209. Title                                                           Codec   Length  Movie Size      Disc Size       Bitrate Bitrate Main Audio Track                          Secondary Audio Track
  210. -----                                                           ------  ------- --------------  --------------  ------- ------- ------------------                        ---------------------
  211. 00004.MPLS                                                      AVC     0:22:40 4,968,763,392   23,877,540,004  29.21   4.99    DTS-HD Master 5.1 8420Kbps (96kHz/24-bit)
  212. [/code]
  213.  
  214. [code]
  215.  
  216. DISC INFO:
  217.  
  218. Disc Title:     GUNS_N_ROSES_Appetite_For_Destruction
  219. Disc Size:      23,877,540,004 bytes
  220. Protection:     AACS
  221. BD-Java:        Yes
  222. BDInfo:         0.5.8
  223.  
  224. PLAYLIST REPORT:
  225.  
  226. Name:                   00004.MPLS
  227. Length:                 0:22:40.826 (h:m:s.ms)
  228. Size:                   4,968,763,392 bytes
  229. Total Bitrate:          29.21 Mbps
  230.  
  231. VIDEO:
  232.  
  233. Codec                   Bitrate             Description    
  234. -----                   -------             -----------    
  235. MPEG-4 AVC Video        4993 kbps           480i / 29.970 fps / 16:9 / High Profile 4.1
  236.  
  237. AUDIO:
  238.  
  239. Codec                           Language        Bitrate         Description    
  240. -----                           --------        -------         -----------    
  241. DTS-HD Master Audio             Undetermined    8420 kbps       5.1 / 96 kHz / 8420 kbps / 24-bit (DTS Core: 6.1 / 48 kHz / 1509 kbps / 24-bit)
  242. Dolby TrueHD Audio              English         7815 kbps       5.1 / 96 kHz / 7815 kbps / 24-bit (AC3 Embedded: 5.1 / 48 kHz / 640 kbps)
  243. LPCM Audio                      English         4608 kbps       2.0 / 96 kHz / 4608 kbps / 24-bit
  244.  
  245. FILES:
  246.  
  247. Name            Time In         Length          Size            Total Bitrate  
  248. ----            -------         ------          ----            -------------  
  249. 00004.M2TS      0:00:00.000     0:22:40.826     4,968,763,392   29,210          
  250.  
  251. CHAPTERS:
  252.  
  253. Number          Time In         Length          Avg Video Rate  Max 1-Sec Rate  Max 1-Sec Time  Max 5-Sec Rate  Max 5-Sec Time  Max 10Sec Rate  Max 10Sec Time  Avg Frame Size  Max Frame Size  Max Frame Time  
  254. ------          -------         ------          --------------  --------------  --------------  --------------  --------------  --------------  --------------  --------------  --------------  --------------  
  255. 1               0:00:00.000     0:22:40.826     4,993 kbps      13,352 kbps     00:06:27.286    9,623 kbps      00:09:53.993    8,035 kbps      00:09:53.993    20,825 bytes    142,145 bytes   00:01:10.670    
  256.  
  257. STREAM DIAGNOSTICS:
  258.  
  259. File            PID             Type            Codec           Language                Seconds                 Bitrate                 Bytes           Packets        
  260. ----            ---             ----            -----           --------                --------------          --------------          -------------   -----          
  261. 00004.M2TS      4113 (0x1011)   0x1B            AVC                                     1360.759                4,993                   849,340,434     4,640,168      
  262. 00004.M2TS      4352 (0x1100)   0x86            DTS-HD MA       und (Undetermined)      1360.759                8,421                   1,432,333,448   7,996,487      
  263. 00004.M2TS      4353 (0x1101)   0x83            TrueHD          eng (English)           1360.759                8,455                   1,438,222,472   8,827,167      
  264. 00004.M2TS      4354 (0x1102)   0x80            LPCM            eng (English)           1360.759                4,615                   784,926,744     4,354,656      
  265.  
  266. [/code]
  267. <---- END FORUMS PASTE ---->
  268.  
  269. QUICK SUMMARY:
  270.  
  271. Disc Title: GUNS_N_ROSES_Appetite_For_Destruction
  272. Disc Size: 23,877,540,004 bytes
  273. Protection: AACS
  274. BD-Java: Yes
  275. Playlist: 00004.MPLS
  276. Size: 4,968,763,392 bytes
  277. Length: 0:22:40.826
  278. Total Bitrate: 29.21 Mbps
  279. Video: MPEG-4 AVC Video / 4993 kbps / 480i / 29.970 fps / 16:9 / High Profile 4.1
  280. Audio: Undetermined / DTS-HD Master Audio / 5.1 / 96 kHz / 8420 kbps / 24-bit (DTS Core: 6.1 / 48 kHz / 1509 kbps / 24-bit)
  281. Audio: English / Dolby TrueHD Audio / 5.1 / 96 kHz / 7815 kbps / 24-bit (AC3 Embedded: 5.1 / 48 kHz / 640 kbps)
  282. Audio: English / LPCM Audio / 2.0 / 96 kHz / 4608 kbps / 24-bit
  283.  
  284.  
  285. ********************
  286. PLAYLIST: 01006.MPLS
  287. ********************
  288.  
  289. <--- BEGIN FORUMS PASTE --->
  290. [code]
  291.                                                                                                                 Total   Video                                            
  292. Title                                                           Codec   Length  Movie Size      Disc Size       Bitrate Bitrate Main Audio Track                          Secondary Audio Track
  293. -----                                                           ------  ------- --------------  --------------  ------- ------- ------------------                        ---------------------
  294. 01006.MPLS                                                      AVC     0:22:40 4,968,763,392   23,877,540,004  29.21   4.99    DTS-HD Master 5.1 8420Kbps (96kHz/24-bit)
  295. [/code]
  296.  
  297. [code]
  298.  
  299. DISC INFO:
  300.  
  301. Disc Title:     GUNS_N_ROSES_Appetite_For_Destruction
  302. Disc Size:      23,877,540,004 bytes
  303. Protection:     AACS
  304. BD-Java:        Yes
  305. BDInfo:         0.5.8
  306.  
  307. PLAYLIST REPORT:
  308.  
  309. Name:                   01006.MPLS
  310. Length:                 0:22:40.826 (h:m:s.ms)
  311. Size:                   4,968,763,392 bytes
  312. Total Bitrate:          29.21 Mbps
  313.  
  314. VIDEO:
  315.  
  316. Codec                   Bitrate             Description    
  317. -----                   -------             -----------    
  318. MPEG-4 AVC Video        4993 kbps           480i / 29.970 fps / 16:9 / High Profile 4.1
  319.  
  320. AUDIO:
  321.  
  322. Codec                           Language        Bitrate         Description    
  323. -----                           --------        -------         -----------    
  324. DTS-HD Master Audio             Undetermined    8420 kbps       5.1 / 96 kHz / 8420 kbps / 24-bit (DTS Core: 6.1 / 48 kHz / 1509 kbps / 24-bit)
  325. Dolby TrueHD Audio              English         7815 kbps       5.1 / 96 kHz / 7815 kbps / 24-bit (AC3 Embedded: 5.1 / 48 kHz / 640 kbps)
  326. LPCM Audio                      English         4608 kbps       2.0 / 96 kHz / 4608 kbps / 24-bit
  327.  
  328. FILES:
  329.  
  330. Name            Time In         Length          Size            Total Bitrate  
  331. ----            -------         ------          ----            -------------  
  332. 00004.M2TS      0:00:00.000     0:22:40.826     4,968,763,392   29,210          
  333.  
  334. CHAPTERS:
  335.  
  336. Number          Time In         Length          Avg Video Rate  Max 1-Sec Rate  Max 1-Sec Time  Max 5-Sec Rate  Max 5-Sec Time  Max 10Sec Rate  Max 10Sec Time  Avg Frame Size  Max Frame Size  Max Frame Time  
  337. ------          -------         ------          --------------  --------------  --------------  --------------  --------------  --------------  --------------  --------------  --------------  --------------  
  338. 1               0:00:00.000     0:04:37.477     4,215 kbps      10,479 kbps     00:01:52.679    6,021 kbps      00:04:11.517    5,460 kbps      00:04:12.952    17,580 bytes    142,145 bytes   00:01:10.670    
  339. 2               0:04:37.477     0:05:15.581     5,584 kbps      13,352 kbps     00:06:27.286    9,549 kbps      00:06:40.733    7,996 kbps      00:06:27.286    23,290 bytes    120,649 bytes   00:08:34.480    
  340. 3               0:09:53.059     0:06:49.041     5,816 kbps      12,228 kbps     00:11:11.470    9,623 kbps      00:09:53.993    8,035 kbps      00:09:53.993    24,258 bytes    102,172 bytes   00:11:23.883    
  341. 4               0:16:42.101     0:05:58.725     4,136 kbps      9,416 kbps      00:16:44.703    5,876 kbps      00:16:44.636    5,108 kbps      00:16:44.703    17,253 bytes    76,234 bytes    00:18:18.297    
  342.  
  343. STREAM DIAGNOSTICS:
  344.  
  345. File            PID             Type            Codec           Language                Seconds                 Bitrate                 Bytes           Packets        
  346. ----            ---             ----            -----           --------                --------------          --------------          -------------   -----          
  347. 00004.M2TS      4113 (0x1011)   0x1B            AVC                                     1360.759                4,993                   849,340,434     4,640,168      
  348. 00004.M2TS      4352 (0x1100)   0x86            DTS-HD MA       und (Undetermined)      1360.759                8,421                   1,432,333,448   7,996,487      
  349. 00004.M2TS      4353 (0x1101)   0x83            TrueHD          eng (English)           1360.759                8,455                   1,438,222,472   8,827,167      
  350. 00004.M2TS      4354 (0x1102)   0x80            LPCM            eng (English)           1360.759                4,615                   784,926,744     4,354,656      
  351.  
  352. [/code]
  353. <---- END FORUMS PASTE ---->
  354.  
  355. QUICK SUMMARY:
  356.  
  357. Disc Title: GUNS_N_ROSES_Appetite_For_Destruction
  358. Disc Size: 23,877,540,004 bytes
  359. Protection: AACS
  360. BD-Java: Yes
  361. Playlist: 01006.MPLS
  362. Size: 4,968,763,392 bytes
  363. Length: 0:22:40.826
  364. Total Bitrate: 29.21 Mbps
  365. Video: MPEG-4 AVC Video / 4993 kbps / 480i / 29.970 fps / 16:9 / High Profile 4.1
  366. Audio: Undetermined / DTS-HD Master Audio / 5.1 / 96 kHz / 8420 kbps / 24-bit (DTS Core: 6.1 / 48 kHz / 1509 kbps / 24-bit)
  367. Audio: English / Dolby TrueHD Audio / 5.1 / 96 kHz / 7815 kbps / 24-bit (AC3 Embedded: 5.1 / 48 kHz / 640 kbps)
  368. Audio: English / LPCM Audio / 2.0 / 96 kHz / 4608 kbps / 24-bit
  369.  
  370.  
  371. ********************
  372. PLAYLIST: 00003.MPLS
  373. ********************
  374.  
  375. <--- BEGIN FORUMS PASTE --->
  376. [code]
  377.                                                                                                                 Total   Video                                            
  378. Title                                                           Codec   Length  Movie Size      Disc Size       Bitrate Bitrate Main Audio Track                          Secondary Audio Track
  379. -----                                                           ------  ------- --------------  --------------  ------- ------- ------------------                        ---------------------
  380. 00003.MPLS                                                      AVC     0:19:54 4,639,795,200   23,877,540,004  31.07   7.40    DTS-HD Master 5.1 8034Kbps (96kHz/24-bit) Dolby TrueHD 5.1 7543Kbps (96kHz/24-bit)
  381. [/code]
  382.  
  383. [code]
  384.  
  385. DISC INFO:
  386.  
  387. Disc Title:     GUNS_N_ROSES_Appetite_For_Destruction
  388. Disc Size:      23,877,540,004 bytes
  389. Protection:     AACS
  390. BD-Java:        Yes
  391. BDInfo:         0.5.8
  392.  
  393. PLAYLIST REPORT:
  394.  
  395. Name:                   00003.MPLS
  396. Length:                 0:19:54.610 (h:m:s.ms)
  397. Size:                   4,639,795,200 bytes
  398. Total Bitrate:          31.07 Mbps
  399.  
  400. VIDEO:
  401.  
  402. Codec                   Bitrate             Description    
  403. -----                   -------             -----------    
  404. MPEG-4 AVC Video        7398 kbps           1080p / 23.976 fps / 16:9 / High Profile 4.1
  405. MPEG-4 AVC Video        19 kbps             480p / 23.976 fps / 16:9 / High Profile 3.2
  406.  
  407. AUDIO:
  408.  
  409. Codec                           Language        Bitrate         Description    
  410. -----                           --------        -------         -----------    
  411. DTS-HD Master Audio             English         8034 kbps       5.1 / 96 kHz / 8034 kbps / 24-bit (DTS Core: 6.1 / 48 kHz / 1509 kbps / 24-bit)
  412. Dolby TrueHD Audio              English         7543 kbps       5.1 / 96 kHz / 7543 kbps / 24-bit (AC3 Embedded: 5.1 / 48 kHz / 640 kbps)
  413. LPCM Audio                      English         4608 kbps       2.0 / 96 kHz / 4608 kbps / 24-bit
  414.  
  415. FILES:
  416.  
  417. Name            Time In         Length          Size            Total Bitrate  
  418. ----            -------         ------          ----            -------------  
  419. 00003.M2TS      0:00:00.000     0:19:54.610     4,639,795,200   31,072          
  420.  
  421. CHAPTERS:
  422.  
  423. Number          Time In         Length          Avg Video Rate  Max 1-Sec Rate  Max 1-Sec Time  Max 5-Sec Rate  Max 5-Sec Time  Max 10Sec Rate  Max 10Sec Time  Avg Frame Size  Max Frame Size  Max Frame Time  
  424. ------          -------         ------          --------------  --------------  --------------  --------------  --------------  --------------  --------------  --------------  --------------  --------------  
  425. 1               0:00:00.000     0:19:54.610     7,398 kbps      13,296 kbps     00:12:18.654    10,046 kbps     00:03:10.732    8,961 kbps      00:03:10.732    38,569 bytes    134,833 bytes   00:00:09.259    
  426.  
  427. STREAM DIAGNOSTICS:
  428.  
  429. File            PID             Type            Codec           Language                Seconds                 Bitrate                 Bytes           Packets        
  430. ----            ---             ----            -----           --------                --------------          --------------          -------------   -----          
  431. 00003.M2TS      4113 (0x1011)   0x1B            AVC                                     1194.527                7,398                   1,104,662,042   6,020,230      
  432. 00003.M2TS      4352 (0x1100)   0x86            DTS-HD MA       eng (English)           1194.527                8,035                   1,199,696,080   6,706,330      
  433. 00003.M2TS      4353 (0x1101)   0x83            TrueHD          eng (English)           1194.527                8,183                   1,221,916,446   7,532,882      
  434. 00003.M2TS      4354 (0x1102)   0x80            LPCM            eng (English)           1194.527                4,615                   689,027,976     3,822,624      
  435. 00003.M2TS      6912 (0x1B00)   0x1B            AVC                                     1194.527                19                      2,793,904       29,942          
  436.  
  437. [/code]
  438. <---- END FORUMS PASTE ---->
  439.  
  440. QUICK SUMMARY:
  441.  
  442. Disc Title: GUNS_N_ROSES_Appetite_For_Destruction
  443. Disc Size: 23,877,540,004 bytes
  444. Protection: AACS
  445. BD-Java: Yes
  446. Playlist: 00003.MPLS
  447. Size: 4,639,795,200 bytes
  448. Length: 0:19:54.610
  449. Total Bitrate: 31.07 Mbps
  450. Video: MPEG-4 AVC Video / 7398 kbps / 1080p / 23.976 fps / 16:9 / High Profile 4.1
  451. Video: MPEG-4 AVC Video / 19 kbps / 480p / 23.976 fps / 16:9 / High Profile 3.2
  452. Audio: English / DTS-HD Master Audio / 5.1 / 96 kHz / 8034 kbps / 24-bit (DTS Core: 6.1 / 48 kHz / 1509 kbps / 24-bit)
  453. Audio: English / Dolby TrueHD Audio / 5.1 / 96 kHz / 7543 kbps / 24-bit (AC3 Embedded: 5.1 / 48 kHz / 640 kbps)
  454. Audio: English / LPCM Audio / 2.0 / 96 kHz / 4608 kbps / 24-bit
  455.  
  456.  
  457. ********************
  458. PLAYLIST: 01003.MPLS
  459. ********************
  460.  
  461. <--- BEGIN FORUMS PASTE --->
  462. [code]
  463.                                                                                                                 Total   Video                                            
  464. Title                                                           Codec   Length  Movie Size      Disc Size       Bitrate Bitrate Main Audio Track                          Secondary Audio Track
  465. -----                                                           ------  ------- --------------  --------------  ------- ------- ------------------                        ---------------------
  466. 01003.MPLS                                                      AVC     0:19:54 4,639,795,200   23,877,540,004  31.07   7.40    DTS-HD Master 5.1 8034Kbps (96kHz/24-bit) Dolby TrueHD 5.1 7543Kbps (96kHz/24-bit)
  467. [/code]
  468.  
  469. [code]
  470.  
  471. DISC INFO:
  472.  
  473. Disc Title:     GUNS_N_ROSES_Appetite_For_Destruction
  474. Disc Size:      23,877,540,004 bytes
  475. Protection:     AACS
  476. BD-Java:        Yes
  477. BDInfo:         0.5.8
  478.  
  479. PLAYLIST REPORT:
  480.  
  481. Name:                   01003.MPLS
  482. Length:                 0:19:54.610 (h:m:s.ms)
  483. Size:                   4,639,795,200 bytes
  484. Total Bitrate:          31.07 Mbps
  485.  
  486. VIDEO:
  487.  
  488. Codec                   Bitrate             Description    
  489. -----                   -------             -----------    
  490. MPEG-4 AVC Video        7398 kbps           1080p / 23.976 fps / 16:9 / High Profile 4.1
  491. MPEG-4 AVC Video        19 kbps             480p / 23.976 fps / 16:9 / High Profile 3.2
  492.  
  493. AUDIO:
  494.  
  495. Codec                           Language        Bitrate         Description    
  496. -----                           --------        -------         -----------    
  497. DTS-HD Master Audio             English         8034 kbps       5.1 / 96 kHz / 8034 kbps / 24-bit (DTS Core: 6.1 / 48 kHz / 1509 kbps / 24-bit)
  498. Dolby TrueHD Audio              English         7543 kbps       5.1 / 96 kHz / 7543 kbps / 24-bit (AC3 Embedded: 5.1 / 48 kHz / 640 kbps)
  499. LPCM Audio                      English         4608 kbps       2.0 / 96 kHz / 4608 kbps / 24-bit
  500.  
  501. FILES:
  502.  
  503. Name            Time In         Length          Size            Total Bitrate  
  504. ----            -------         ------          ----            -------------  
  505. 00003.M2TS      0:00:00.000     0:19:54.610     4,639,795,200   31,072          
  506.  
  507. CHAPTERS:
  508.  
  509. Number          Time In         Length          Avg Video Rate  Max 1-Sec Rate  Max 1-Sec Time  Max 5-Sec Rate  Max 5-Sec Time  Max 10Sec Rate  Max 10Sec Time  Avg Frame Size  Max Frame Size  Max Frame Time  
  510. ------          -------         ------          --------------  --------------  --------------  --------------  --------------  --------------  --------------  --------------  --------------  --------------  
  511. 1               0:00:00.000     0:03:07.312     7,561 kbps      13,275 kbps     00:00:09.801    9,890 kbps      00:00:09.217    8,897 kbps      00:00:09.217    39,413 bytes    134,833 bytes   00:00:09.259    
  512. 2               0:03:07.312     0:05:54.354     7,786 kbps      13,099 kbps     00:08:59.789    10,046 kbps     00:03:10.732    8,961 kbps      00:03:10.732    40,591 bytes    116,979 bytes   00:03:10.857    
  513. 3               0:09:01.666     0:03:15.945     7,158 kbps      10,255 kbps     00:12:16.277    8,337 kbps      00:12:12.273    8,136 kbps      00:11:03.829    37,318 bytes    120,584 bytes   00:10:13.237    
  514. 4               0:12:17.611     0:04:10.208     8,256 kbps      13,296 kbps     00:12:18.654    9,898 kbps      00:12:18.654    8,774 kbps      00:12:18.654    43,041 bytes    103,196 bytes   00:12:18.988    
  515. 5               0:16:27.820     0:03:25.121     5,820 kbps      8,397 kbps      00:16:38.288    7,046 kbps      00:16:29.321    6,796 kbps      00:16:29.321    30,344 bytes    112,120 bytes   00:19:52.816    
  516. 6               0:19:52.941     0:00:01.668     39 kbps         43 kbps         00:19:53.025    0 kbps          00:00:00.000    0 kbps          00:00:00.000    213 bytes       895 bytes       00:19:53.066    
  517.  
  518. STREAM DIAGNOSTICS:
  519.  
  520. File            PID             Type            Codec           Language                Seconds                 Bitrate                 Bytes           Packets        
  521. ----            ---             ----            -----           --------                --------------          --------------          -------------   -----          
  522. 00003.M2TS      4113 (0x1011)   0x1B            AVC                                     1194.527                7,398                   1,104,662,042   6,020,230      
  523. 00003.M2TS      4352 (0x1100)   0x86            DTS-HD MA       eng (English)           1194.527                8,035                   1,199,696,080   6,706,330      
  524. 00003.M2TS      4353 (0x1101)   0x83            TrueHD          eng (English)           1194.527                8,183                   1,221,916,446   7,532,882      
  525. 00003.M2TS      4354 (0x1102)   0x80            LPCM            eng (English)           1194.527                4,615                   689,027,976     3,822,624      
  526. 00003.M2TS      6912 (0x1B00)   0x1B            AVC                                     1194.527                19                      2,793,904       29,942          
  527.  
  528. [/code]
  529. <---- END FORUMS PASTE ---->
  530.  
  531. QUICK SUMMARY:
  532.  
  533. Disc Title: GUNS_N_ROSES_Appetite_For_Destruction
  534. Disc Size: 23,877,540,004 bytes
  535. Protection: AACS
  536. BD-Java: Yes
  537. Playlist: 01003.MPLS
  538. Size: 4,639,795,200 bytes
  539. Length: 0:19:54.610
  540. Total Bitrate: 31.07 Mbps
  541. Video: MPEG-4 AVC Video / 7398 kbps / 1080p / 23.976 fps / 16:9 / High Profile 4.1
  542. Video: MPEG-4 AVC Video / 19 kbps / 480p / 23.976 fps / 16:9 / High Profile 3.2
  543. Audio: English / DTS-HD Master Audio / 5.1 / 96 kHz / 8034 kbps / 24-bit (DTS Core: 6.1 / 48 kHz / 1509 kbps / 24-bit)
  544. Audio: English / Dolby TrueHD Audio / 5.1 / 96 kHz / 7543 kbps / 24-bit (AC3 Embedded: 5.1 / 48 kHz / 640 kbps)
  545. Audio: English / LPCM Audio / 2.0 / 96 kHz / 4608 kbps / 24-bit
  546.  
  547.  
  548. ********************
  549. PLAYLIST: 00005.MPLS
  550. ********************
  551.  
  552. <--- BEGIN FORUMS PASTE --->
  553. [code]
  554.                                                                                                                 Total   Video                                            
  555. Title                                                           Codec   Length  Movie Size      Disc Size       Bitrate Bitrate Main Audio Track                          Secondary Audio Track
  556. -----                                                           ------  ------- --------------  --------------  ------- ------- ------------------                        ---------------------
  557. 00005.MPLS                                                      AVC     0:03:57 913,612,800     23,877,540,004  30.80   6.91    DTS-HD Master 5.1 8323Kbps (96kHz/24-bit) Dolby TrueHD 5.1 7641Kbps (96kHz/24-bit)
  558. [/code]
  559.  
  560. [code]
  561.  
  562. DISC INFO:
  563.  
  564. Disc Title:     GUNS_N_ROSES_Appetite_For_Destruction
  565. Disc Size:      23,877,540,004 bytes
  566. Protection:     AACS
  567. BD-Java:        Yes
  568. BDInfo:         0.5.8
  569.  
  570. PLAYLIST REPORT:
  571.  
  572. Name:                   00005.MPLS
  573. Length:                 0:03:57.278 (h:m:s.ms)
  574. Size:                   913,612,800 bytes
  575. Total Bitrate:          30.80 Mbps
  576.  
  577. VIDEO:
  578.  
  579. Codec                   Bitrate             Description    
  580. -----                   -------             -----------    
  581. MPEG-4 AVC Video        6914 kbps           1080p / 23.976 fps / 16:9 / High Profile 4.1
  582.  
  583. AUDIO:
  584.  
  585. Codec                           Language        Bitrate         Description    
  586. -----                           --------        -------         -----------    
  587. DTS-HD Master Audio             English         8323 kbps       5.1 / 96 kHz / 8323 kbps / 24-bit (DTS Core: 6.1 / 48 kHz / 1509 kbps / 24-bit)
  588. Dolby TrueHD Audio              English         7641 kbps       5.1 / 96 kHz / 7641 kbps / 24-bit (AC3 Embedded: 5.1 / 48 kHz / 640 kbps)
  589. LPCM Audio                      English         4608 kbps       2.0 / 96 kHz / 4608 kbps / 24-bit
  590.  
  591. FILES:
  592.  
  593. Name            Time In         Length          Size            Total Bitrate  
  594. ----            -------         ------          ----            -------------  
  595. 00005.M2TS      0:00:00.000     0:03:57.278     913,612,800     30,803          
  596.  
  597. CHAPTERS:
  598.  
  599. Number          Time In         Length          Avg Video Rate  Max 1-Sec Rate  Max 1-Sec Time  Max 5-Sec Rate  Max 5-Sec Time  Max 10Sec Rate  Max 10Sec Time  Avg Frame Size  Max Frame Size  Max Frame Time  
  600. ------          -------         ------          --------------  --------------  --------------  --------------  --------------  --------------  --------------  --------------  --------------  --------------  
  601. 1               0:00:00.000     0:03:57.278     6,914 kbps      12,677 kbps     00:01:45.814    9,550 kbps      00:02:44.706    8,633 kbps      00:02:45.165    36,052 bytes    252,876 bytes   00:00:29.529    
  602.  
  603. STREAM DIAGNOSTICS:
  604.  
  605. File            PID             Type            Codec           Language                Seconds                 Bitrate                 Bytes           Packets        
  606. ----            ---             ----            -----           --------                --------------          --------------          -------------   -----          
  607. 00005.M2TS      4113 (0x1011)   0x1B            AVC                                     237.195                 6,916                   205,065,426     1,117,763      
  608. 00005.M2TS      4352 (0x1100)   0x86            DTS-HD MA       eng (English)           237.195                 8,326                   246,864,004     1,378,679      
  609. 00005.M2TS      4353 (0x1101)   0x83            TrueHD          eng (English)           237.195                 8,284                   245,627,738     1,492,215      
  610. 00005.M2TS      4354 (0x1102)   0x80            LPCM            eng (English)           237.195                 4,615                   136,840,032     759,168        
  611.  
  612. [/code]
  613. <---- END FORUMS PASTE ---->
  614.  
  615. QUICK SUMMARY:
  616.  
  617. Disc Title: GUNS_N_ROSES_Appetite_For_Destruction
  618. Disc Size: 23,877,540,004 bytes
  619. Protection: AACS
  620. BD-Java: Yes
  621. Playlist: 00005.MPLS
  622. Size: 913,612,800 bytes
  623. Length: 0:03:57.278
  624. Total Bitrate: 30.80 Mbps
  625. Video: MPEG-4 AVC Video / 6914 kbps / 1080p / 23.976 fps / 16:9 / High Profile 4.1
  626. Audio: English / DTS-HD Master Audio / 5.1 / 96 kHz / 8323 kbps / 24-bit (DTS Core: 6.1 / 48 kHz / 1509 kbps / 24-bit)
  627. Audio: English / Dolby TrueHD Audio / 5.1 / 96 kHz / 7641 kbps / 24-bit (AC3 Embedded: 5.1 / 48 kHz / 640 kbps)
  628. Audio: English / LPCM Audio / 2.0 / 96 kHz / 4608 kbps / 24-bit
  629.  
  630.  
  631. ********************
  632. PLAYLIST: 01007.MPLS
  633. ********************
  634.  
  635. <--- BEGIN FORUMS PASTE --->
  636. [code]
  637.                                                                                                                 Total   Video                                            
  638. Title                                                           Codec   Length  Movie Size      Disc Size       Bitrate Bitrate Main Audio Track                          Secondary Audio Track
  639. -----                                                           ------  ------- --------------  --------------  ------- ------- ------------------                        ---------------------
  640. 01007.MPLS                                                      AVC     0:03:57 913,612,800     23,877,540,004  30.80   6.91    DTS-HD Master 5.1 8323Kbps (96kHz/24-bit) Dolby TrueHD 5.1 7641Kbps (96kHz/24-bit)
  641. [/code]
  642.  
  643. [code]
  644.  
  645. DISC INFO:
  646.  
  647. Disc Title:     GUNS_N_ROSES_Appetite_For_Destruction
  648. Disc Size:      23,877,540,004 bytes
  649. Protection:     AACS
  650. BD-Java:        Yes
  651. BDInfo:         0.5.8
  652.  
  653. PLAYLIST REPORT:
  654.  
  655. Name:                   01007.MPLS
  656. Length:                 0:03:57.278 (h:m:s.ms)
  657. Size:                   913,612,800 bytes
  658. Total Bitrate:          30.80 Mbps
  659.  
  660. VIDEO:
  661.  
  662. Codec                   Bitrate             Description    
  663. -----                   -------             -----------    
  664. MPEG-4 AVC Video        6914 kbps           1080p / 23.976 fps / 16:9 / High Profile 4.1
  665.  
  666. AUDIO:
  667.  
  668. Codec                           Language        Bitrate         Description    
  669. -----                           --------        -------         -----------    
  670. DTS-HD Master Audio             English         8323 kbps       5.1 / 96 kHz / 8323 kbps / 24-bit (DTS Core: 6.1 / 48 kHz / 1509 kbps / 24-bit)
  671. Dolby TrueHD Audio              English         7641 kbps       5.1 / 96 kHz / 7641 kbps / 24-bit (AC3 Embedded: 5.1 / 48 kHz / 640 kbps)
  672. LPCM Audio                      English         4608 kbps       2.0 / 96 kHz / 4608 kbps / 24-bit
  673.  
  674. FILES:
  675.  
  676. Name            Time In         Length          Size            Total Bitrate  
  677. ----            -------         ------          ----            -------------  
  678. 00005.M2TS      0:00:00.000     0:03:57.278     913,612,800     30,803          
  679.  
  680. CHAPTERS:
  681.  
  682. Number          Time In         Length          Avg Video Rate  Max 1-Sec Rate  Max 1-Sec Time  Max 5-Sec Rate  Max 5-Sec Time  Max 10Sec Rate  Max 10Sec Time  Avg Frame Size  Max Frame Size  Max Frame Time  
  683. ------          -------         ------          --------------  --------------  --------------  --------------  --------------  --------------  --------------  --------------  --------------  --------------  
  684. 1               0:00:00.000     0:03:56.236     6,944 kbps      12,677 kbps     00:01:45.814    9,550 kbps      00:02:44.706    8,633 kbps      00:02:45.165    36,198 bytes    252,876 bytes   00:00:29.529    
  685. 2               0:03:56.236     0:00:01.042     33 kbps         0 kbps          00:00:00.000    0 kbps          00:00:00.000    0 kbps          00:00:00.000    185 bytes       918 bytes       00:03:57.111    
  686.  
  687. STREAM DIAGNOSTICS:
  688.  
  689. File            PID             Type            Codec           Language                Seconds                 Bitrate                 Bytes           Packets        
  690. ----            ---             ----            -----           --------                --------------          --------------          -------------   -----          
  691. 00005.M2TS      4113 (0x1011)   0x1B            AVC                                     237.195                 6,916                   205,065,426     1,117,763      
  692. 00005.M2TS      4352 (0x1100)   0x86            DTS-HD MA       eng (English)           237.195                 8,326                   246,864,004     1,378,679      
  693. 00005.M2TS      4353 (0x1101)   0x83            TrueHD          eng (English)           237.195                 8,284                   245,627,738     1,492,215      
  694. 00005.M2TS      4354 (0x1102)   0x80            LPCM            eng (English)           237.195                 4,615                   136,840,032     759,168        
  695.  
  696. [/code]
  697. <---- END FORUMS PASTE ---->
  698.  
  699. QUICK SUMMARY:
  700.  
  701. Disc Title: GUNS_N_ROSES_Appetite_For_Destruction
  702. Disc Size: 23,877,540,004 bytes
  703. Protection: AACS
  704. BD-Java: Yes
  705. Playlist: 01007.MPLS
  706. Size: 913,612,800 bytes
  707. Length: 0:03:57.278
  708. Total Bitrate: 30.80 Mbps
  709. Video: MPEG-4 AVC Video / 6914 kbps / 1080p / 23.976 fps / 16:9 / High Profile 4.1
  710. Audio: English / DTS-HD Master Audio / 5.1 / 96 kHz / 8323 kbps / 24-bit (DTS Core: 6.1 / 48 kHz / 1509 kbps / 24-bit)
  711. Audio: English / Dolby TrueHD Audio / 5.1 / 96 kHz / 7641 kbps / 24-bit (AC3 Embedded: 5.1 / 48 kHz / 640 kbps)
  712. Audio: English / LPCM Audio / 2.0 / 96 kHz / 4608 kbps / 24-bit
  713.  
  714.  
  715. ********************
  716. PLAYLIST: 00001.MPLS
  717. ********************
  718.  
  719. <--- BEGIN FORUMS PASTE --->
  720. [code]
  721.                                                                                                                 Total   Video                                            
  722. Title                                                           Codec   Length  Movie Size      Disc Size       Bitrate Bitrate Main Audio Track                          Secondary Audio Track
  723. -----                                                           ------  ------- --------------  --------------  ------- ------- ------------------                        ---------------------
  724. 00001.MPLS                                                      AVC     0:03:13 690,475,008     23,877,540,004  28.59   4.21    DTS-HD Master 5.1 8585Kbps (96kHz/24-bit) Dolby TrueHD 5.1 7924Kbps (96kHz/24-bit)
  725. [/code]
  726.  
  727. [code]
  728.  
  729. DISC INFO:
  730.  
  731. Disc Title:     GUNS_N_ROSES_Appetite_For_Destruction
  732. Disc Size:      23,877,540,004 bytes
  733. Protection:     AACS
  734. BD-Java:        Yes
  735. BDInfo:         0.5.8
  736.  
  737. PLAYLIST REPORT:
  738.  
  739. Name:                   00001.MPLS
  740. Length:                 0:03:13.234 (h:m:s.ms)
  741. Size:                   690,475,008 bytes
  742. Total Bitrate:          28.59 Mbps
  743.  
  744. VIDEO:
  745.  
  746. Codec                   Bitrate             Description    
  747. -----                   -------             -----------    
  748. MPEG-4 AVC Video        4213 kbps           1080p / 23.976 fps / 16:9 / High Profile 4.1
  749.  
  750. AUDIO:
  751.  
  752. Codec                           Language        Bitrate         Description    
  753. -----                           --------        -------         -----------    
  754. DTS-HD Master Audio             English         8585 kbps       5.1 / 96 kHz / 8585 kbps / 24-bit (DTS Core: 6.1 / 48 kHz / 1509 kbps / 24-bit)
  755. Dolby TrueHD Audio              English         7924 kbps       5.1 / 96 kHz / 7924 kbps / 24-bit (AC3 Embedded: 5.1 / 48 kHz / 640 kbps)
  756. LPCM Audio                      English         4608 kbps       2.0 / 96 kHz / 4608 kbps / 24-bit
  757.  
  758. FILES:
  759.  
  760. Name            Time In         Length          Size            Total Bitrate  
  761. ----            -------         ------          ----            -------------  
  762. 00001.M2TS      0:00:00.000     0:03:13.234     690,475,008     28,586          
  763.  
  764. CHAPTERS:
  765.  
  766. Number          Time In         Length          Avg Video Rate  Max 1-Sec Rate  Max 1-Sec Time  Max 5-Sec Rate  Max 5-Sec Time  Max 10Sec Rate  Max 10Sec Time  Avg Frame Size  Max Frame Size  Max Frame Time  
  767. ------          -------         ------          --------------  --------------  --------------  --------------  --------------  --------------  --------------  --------------  --------------  --------------  
  768. 1               0:00:00.000     0:03:13.234     4,213 kbps      11,080 kbps     00:00:05.839    6,202 kbps      00:02:37.448    5,877 kbps      00:02:33.069    21,970 bytes    159,072 bytes   00:00:34.200    
  769.  
  770. STREAM DIAGNOSTICS:
  771.  
  772. File            PID             Type            Codec           Language                Seconds                 Bitrate                 Bytes           Packets        
  773. ----            ---             ----            -----           --------                --------------          --------------          -------------   -----          
  774. 00001.M2TS      4113 (0x1011)   0x1B            AVC                                     193.151                 4,215                   101,764,145     555,760        
  775. 00001.M2TS      4352 (0x1100)   0x86            DTS-HD MA       eng (English)           193.151                 8,589                   207,371,552     1,157,222      
  776. 00001.M2TS      4353 (0x1101)   0x83            TrueHD          eng (English)           193.151                 8,568                   206,863,618     1,256,533      
  777. 00001.M2TS      4354 (0x1102)   0x80            LPCM            eng (English)           193.151                 4,614                   111,411,804     618,096        
  778.  
  779. [/code]
  780. <---- END FORUMS PASTE ---->
  781.  
  782. QUICK SUMMARY:
  783.  
  784. Disc Title: GUNS_N_ROSES_Appetite_For_Destruction
  785. Disc Size: 23,877,540,004 bytes
  786. Protection: AACS
  787. BD-Java: Yes
  788. Playlist: 00001.MPLS
  789. Size: 690,475,008 bytes
  790. Length: 0:03:13.234
  791. Total Bitrate: 28.59 Mbps
  792. Video: MPEG-4 AVC Video / 4213 kbps / 1080p / 23.976 fps / 16:9 / High Profile 4.1
  793. Audio: English / DTS-HD Master Audio / 5.1 / 96 kHz / 8585 kbps / 24-bit (DTS Core: 6.1 / 48 kHz / 1509 kbps / 24-bit)
  794. Audio: English / Dolby TrueHD Audio / 5.1 / 96 kHz / 7924 kbps / 24-bit (AC3 Embedded: 5.1 / 48 kHz / 640 kbps)
  795. Audio: English / LPCM Audio / 2.0 / 96 kHz / 4608 kbps / 24-bit
  796.  
  797.  
  798. ********************
  799. PLAYLIST: 01001.MPLS
  800. ********************
  801.  
  802. <--- BEGIN FORUMS PASTE --->
  803. [code]
  804.                                                                                                                 Total   Video                                            
  805. Title                                                           Codec   Length  Movie Size      Disc Size       Bitrate Bitrate Main Audio Track                          Secondary Audio Track
  806. -----                                                           ------  ------- --------------  --------------  ------- ------- ------------------                        ---------------------
  807. 01001.MPLS                                                      AVC     0:03:13 690,475,008     23,877,540,004  28.59   4.21    DTS-HD Master 5.1 8585Kbps (96kHz/24-bit) Dolby TrueHD 5.1 7924Kbps (96kHz/24-bit)
  808. [/code]
  809.  
  810. [code]
  811.  
  812. DISC INFO:
  813.  
  814. Disc Title:     GUNS_N_ROSES_Appetite_For_Destruction
  815. Disc Size:      23,877,540,004 bytes
  816. Protection:     AACS
  817. BD-Java:        Yes
  818. BDInfo:         0.5.8
  819.  
  820. PLAYLIST REPORT:
  821.  
  822. Name:                   01001.MPLS
  823. Length:                 0:03:13.234 (h:m:s.ms)
  824. Size:                   690,475,008 bytes
  825. Total Bitrate:          28.59 Mbps
  826.  
  827. VIDEO:
  828.  
  829. Codec                   Bitrate             Description    
  830. -----                   -------             -----------    
  831. MPEG-4 AVC Video        4213 kbps           1080p / 23.976 fps / 16:9 / High Profile 4.1
  832.  
  833. AUDIO:
  834.  
  835. Codec                           Language        Bitrate         Description    
  836. -----                           --------        -------         -----------    
  837. DTS-HD Master Audio             English         8585 kbps       5.1 / 96 kHz / 8585 kbps / 24-bit (DTS Core: 6.1 / 48 kHz / 1509 kbps / 24-bit)
  838. Dolby TrueHD Audio              English         7924 kbps       5.1 / 96 kHz / 7924 kbps / 24-bit (AC3 Embedded: 5.1 / 48 kHz / 640 kbps)
  839. LPCM Audio                      English         4608 kbps       2.0 / 96 kHz / 4608 kbps / 24-bit
  840.  
  841. FILES:
  842.  
  843. Name            Time In         Length          Size            Total Bitrate  
  844. ----            -------         ------          ----            -------------  
  845. 00001.M2TS      0:00:00.000     0:03:13.234     690,475,008     28,586          
  846.  
  847. CHAPTERS:
  848.  
  849. Number          Time In         Length          Avg Video Rate  Max 1-Sec Rate  Max 1-Sec Time  Max 5-Sec Rate  Max 5-Sec Time  Max 10Sec Rate  Max 10Sec Time  Avg Frame Size  Max Frame Size  Max Frame Time  
  850. ------          -------         ------          --------------  --------------  --------------  --------------  --------------  --------------  --------------  --------------  --------------  --------------  
  851. 1               0:00:00.000     0:00:06.965     5,162 kbps      11,080 kbps     00:00:05.839    5,828 kbps      00:00:01.501    0 kbps          00:00:00.000    26,754 bytes    136,180 bytes   00:00:03.461    
  852. 2               0:00:06.965     0:00:00.250     3,397 kbps      0 kbps          00:00:00.000    0 kbps          00:00:00.000    0 kbps          00:00:00.000    17,709 bytes    55,349 bytes    00:00:07.007    
  853. 3               0:00:07.215     0:00:59.851     3,620 kbps      5,130 kbps      00:01:05.148    3,996 kbps      00:00:31.489    3,921 kbps      00:00:14.014    18,871 bytes    159,072 bytes   00:00:34.200    
  854. 4               0:01:07.066     0:00:01.084     2,604 kbps      2,796 kbps      00:01:07.150    0 kbps          00:00:00.000    0 kbps          00:00:00.000    13,575 bytes    153,339 bytes   00:01:08.068    
  855. 5               0:01:08.151     0:00:00.417     343 kbps        0 kbps          00:00:00.000    0 kbps          00:00:00.000    0 kbps          00:00:00.000    1,790 bytes     3,846 bytes     00:01:08.234    
  856. 6               0:01:08.568     0:01:00.560     3,555 kbps      6,995 kbps      00:02:08.002    4,478 kbps      00:01:31.299    4,060 kbps      00:01:16.367    18,534 bytes    156,392 bytes   00:01:42.894    
  857. 7               0:02:09.129     0:00:01.126     1,859 kbps      2,057 kbps      00:02:09.254    0 kbps          00:00:00.000    0 kbps          00:00:00.000    9,692 bytes     89,026 bytes    00:02:10.130    
  858. 8               0:02:10.255     0:00:00.417     5,689 kbps      0 kbps          00:00:00.000    0 kbps          00:00:00.000    0 kbps          00:00:00.000    29,658 bytes    38,138 bytes    00:02:10.630    
  859. 9               0:02:10.672     0:01:01.561     5,487 kbps      7,862 kbps      00:02:51.713    6,202 kbps      00:02:37.448    5,877 kbps      00:02:33.069    28,608 bytes    96,844 bytes    00:02:12.590    
  860. 10              0:03:12.233     0:00:01.001     139 kbps        0 kbps          00:00:00.000    0 kbps          00:00:00.000    0 kbps          00:00:00.000    788 bytes       6,529 bytes     00:03:12.317    
  861.  
  862. STREAM DIAGNOSTICS:
  863.  
  864. File            PID             Type            Codec           Language                Seconds                 Bitrate                 Bytes           Packets        
  865. ----            ---             ----            -----           --------                --------------          --------------          -------------   -----          
  866. 00001.M2TS      4113 (0x1011)   0x1B            AVC                                     193.151                 4,215                   101,764,145     555,760        
  867. 00001.M2TS      4352 (0x1100)   0x86            DTS-HD MA       eng (English)           193.151                 8,589                   207,371,552     1,157,222      
  868. 00001.M2TS      4353 (0x1101)   0x83            TrueHD          eng (English)           193.151                 8,568                   206,863,618     1,256,533      
  869. 00001.M2TS      4354 (0x1102)   0x80            LPCM            eng (English)           193.151                 4,614                   111,411,804     618,096        
  870.  
  871. [/code]
  872. <---- END FORUMS PASTE ---->
  873.  
  874. QUICK SUMMARY:
  875.  
  876. Disc Title: GUNS_N_ROSES_Appetite_For_Destruction
  877. Disc Size: 23,877,540,004 bytes
  878. Protection: AACS
  879. BD-Java: Yes
  880. Playlist: 01001.MPLS
  881. Size: 690,475,008 bytes
  882. Length: 0:03:13.234
  883. Total Bitrate: 28.59 Mbps
  884. Video: MPEG-4 AVC Video / 4213 kbps / 1080p / 23.976 fps / 16:9 / High Profile 4.1
  885. Audio: English / DTS-HD Master Audio / 5.1 / 96 kHz / 8585 kbps / 24-bit (DTS Core: 6.1 / 48 kHz / 1509 kbps / 24-bit)
  886. Audio: English / Dolby TrueHD Audio / 5.1 / 96 kHz / 7924 kbps / 24-bit (AC3 Embedded: 5.1 / 48 kHz / 640 kbps)
  887. Audio: English / LPCM Audio / 2.0 / 96 kHz / 4608 kbps / 24-bit
RAW Paste Data
We use cookies for various purposes including analytics. By continuing to use Pastebin, you agree to our use of cookies as described in the Cookies Policy. OK, I Understand
 
Top