SHARE
TWEET

3I Source

mhimranhossain97 Dec 10th, 2019 82 Never
Not a member of Pastebin yet? Sign Up, it unlocks many cool features!
  1. General
  2. Unique ID                                : 253456464073290242229354077070389514817 (0xBEADF07AED74ACA75861EEBBED619241)
  3. Complete name                            : /home/mh/Misc/Remux/3.Idiots.2009.REPACK.1080p.BluRay.REMUX.AVC.DTS-HD.MA.5.1-T00thLe$$.mkv
  4. Format                                   : Matroska
  5. Format version                           : Version 4 / Version 2
  6. File size                                : 33.6 GiB
  7. Duration                                 : 2 h 51 min
  8. Overall bit rate mode                    : Variable
  9. Overall bit rate                         : 28.1 Mb/s
  10. Movie name                               : 3 Idiots (2009)
  11. Encoded date                             : UTC 2019-09-05 15:53:03
  12. Writing application                      : mkvmerge v37.0.0 ('Leave It') 64-bit
  13. Writing library                          : libebml v1.3.9 + libmatroska v1.5.2
  14. Cover                                    : Yes
  15. Attachments                              : cover.jpg
  16.  
  17. Video
  18. ID                                       : 1
  19. Format                                   : AVC
  20. Format/Info                              : Advanced Video Codec
  21. Format profile                           : High@L4.1
  22. Format settings                          : CABAC / 4 Ref Frames
  23. Format settings, CABAC                   : Yes
  24. Format settings, ReFrames                : 4 frames
  25. Format settings, GOP                     : M=3, N=12
  26. Codec ID                                 : V_MPEG4/ISO/AVC
  27. Duration                                 : 2 h 51 min
  28. Bit rate mode                            : Variable
  29. Bit rate                                 : 25.5 Mb/s
  30. Maximum bit rate                         : 30.0 Mb/s
  31. Width                                    : 1 920 pixels
  32. Height                                   : 1 080 pixels
  33. Display aspect ratio                     : 16:9
  34. Frame rate mode                          : Constant
  35. Frame rate                               : 24.000 FPS
  36. Standard                                 : NTSC
  37. Color space                              : YUV
  38. Chroma subsampling                       : 4:2:0
  39. Bit depth                                : 8 bits
  40. Scan type                                : Progressive
  41. Bits/(Pixel*Frame)                       : 0.512
  42. Stream size                              : 30.5 GiB (91%)
  43. Title                                    : MPEG-4 AVC Video / 25500 kbps / 1080p / 24 fps / 16:9 / High Profile 4.1
  44. Language                                 : English
  45. Default                                  : Yes
  46. Forced                                   : No
  47. Color range                              : Limited
  48. Color primaries                          : BT.709
  49. Transfer characteristics                 : BT.709
  50. Matrix coefficients                      : BT.709
  51.  
  52. Audio #1
  53. ID                                       : 2
  54. Format                                   : DTS
  55. Format/Info                              : Digital Theater Systems
  56. Format profile                           : MA / Core
  57. Codec ID                                 : A_DTS
  58. Duration                                 : 2 h 51 min
  59. Bit rate mode                            : Variable / Constant
  60. Bit rate                                 : 2 288 kb/s / 1 509 kb/s
  61. Channel(s)                               : 6 channels
  62. Channel positions                        : Front: L C R, Side: L R, LFE
  63. Sampling rate                            : 48.0 kHz
  64. Frame rate                               : 93.750 FPS (512 SPF)
  65. Bit depth                                : 16 bits
  66. Compression mode                         : Lossless / Lossy
  67. Stream size                              : 2.73 GiB (8%)
  68. Title                                    : DTS-HD Master Audio / Hindi / 2288 kbps / 5.1 / 48 kHz / 16-bits
  69. Language                                 : Hindi
  70. Default                                  : Yes
  71. Forced                                   : No
  72.  
  73. Audio #2
  74. ID                                       : 3
  75. Format                                   : AC-3
  76. Format/Info                              : Audio Coding 3
  77. Codec ID                                 : A_AC3
  78. Duration                                 : 2 h 51 min
  79. Bit rate mode                            : Constant
  80. Bit rate                                 : 224 kb/s
  81. Channel(s)                               : 2 channels
  82. Channel positions                        : Front: L R
  83. Sampling rate                            : 48.0 kHz
  84. Frame rate                               : 31.250 FPS (1536 SPF)
  85. Bit depth                                : 16 bits
  86. Compression mode                         : Lossy
  87. Stream size                              : 274 MiB (1%)
  88. Title                                    : Commentary with Director: Rajkumar Hirani / Dolby Digital Audio / Hindi + English (Commentary)/ 224 kbps / 2.0 / 48 kHz
  89. Language                                 : English
  90. Service kind                             : Complete Main
  91. Default                                  : No
  92. Forced                                   : No
  93.  
  94. Text #1
  95. ID                                       : 4
  96. Format                                   : PGS
  97. Muxing mode                              : zlib
  98. Codec ID                                 : S_HDMV/PGS
  99. Codec ID/Info                            : Picture based subtitle format used on BDs/HD-DVDs
  100. Duration                                 : 2 h 46 min
  101. Bit rate                                 : 33.9 kb/s
  102. Count of elements                        : 4266
  103. Stream size                              : 40.5 MiB (0%)
  104. Title                                    : English
  105. Language                                 : English
  106. Default                                  : Yes
  107. Forced                                   : No
  108.  
  109. Text #2
  110. ID                                       : 5
  111. Format                                   : PGS
  112. Muxing mode                              : zlib
  113. Codec ID                                 : S_HDMV/PGS
  114. Codec ID/Info                            : Picture based subtitle format used on BDs/HD-DVDs
  115. Duration                                 : 2 h 46 min
  116. Bit rate                                 : 21.3 kb/s
  117. Count of elements                        : 4274
  118. Stream size                              : 25.4 MiB (0%)
  119. Title                                    : Arabic
  120. Language                                 : Arabic
  121. Default                                  : No
  122. Forced                                   : No
  123.  
  124. Text #3
  125. ID                                       : 6
  126. Format                                   : PGS
  127. Muxing mode                              : zlib
  128. Codec ID                                 : S_HDMV/PGS
  129. Codec ID/Info                            : Picture based subtitle format used on BDs/HD-DVDs
  130. Duration                                 : 2 h 48 min
  131. Bit rate                                 : 32.5 kb/s
  132. Count of elements                        : 4278
  133. Stream size                              : 39.1 MiB (0%)
  134. Title                                    : Dutch
  135. Language                                 : Dutch
  136. Default                                  : No
  137. Forced                                   : No
  138.  
  139. Text #4
  140. ID                                       : 7
  141. Format                                   : PGS
  142. Muxing mode                              : zlib
  143. Codec ID                                 : S_HDMV/PGS
  144. Codec ID/Info                            : Picture based subtitle format used on BDs/HD-DVDs
  145. Duration                                 : 2 h 46 min
  146. Bit rate                                 : 33.8 kb/s
  147. Count of elements                        : 4453
  148. Stream size                              : 40.4 MiB (0%)
  149. Title                                    : French
  150. Language                                 : French
  151. Default                                  : No
  152. Forced                                   : No
  153.  
  154. Text #5
  155. ID                                       : 8
  156. Format                                   : PGS
  157. Muxing mode                              : zlib
  158. Codec ID                                 : S_HDMV/PGS
  159. Codec ID/Info                            : Picture based subtitle format used on BDs/HD-DVDs
  160. Duration                                 : 2 h 46 min
  161. Bit rate                                 : 33.2 kb/s
  162. Count of elements                        : 4401
  163. Stream size                              : 39.7 MiB (0%)
  164. Title                                    : Portuguese
  165. Language                                 : Portuguese
  166. Default                                  : No
  167. Forced                                   : No
  168.  
  169. Text #6
  170. ID                                       : 9
  171. Format                                   : PGS
  172. Muxing mode                              : zlib
  173. Codec ID                                 : S_HDMV/PGS
  174. Codec ID/Info                            : Picture based subtitle format used on BDs/HD-DVDs
  175. Duration                                 : 2 h 46 min
  176. Bit rate                                 : 39.3 kb/s
  177. Count of elements                        : 4511
  178. Stream size                              : 47.0 MiB (0%)
  179. Title                                    : Malay
  180. Language                                 : Malay
  181. Default                                  : No
  182. Forced                                   : No
  183.  
  184. Text #7
  185. ID                                       : 10
  186. Format                                   : PGS
  187. Muxing mode                              : zlib
  188. Codec ID                                 : S_HDMV/PGS
  189. Codec ID/Info                            : Picture based subtitle format used on BDs/HD-DVDs
  190. Duration                                 : 2 h 46 min
  191. Bit rate                                 : 33.3 kb/s
  192. Count of elements                        : 4395
  193. Stream size                              : 39.8 MiB (0%)
  194. Title                                    : Spanish
  195. Language                                 : Spanish
  196. Default                                  : No
  197. Forced                                   : No
  198.  
  199. Menu
  200. 00:00:00.000                             : en:Opening
  201. 00:01:07.375                             : en:Farhan Fakes Heart Attack
  202. 00:08:23.041                             : en:Behti Hawa Sa Tha Wo...
  203. 00:13:24.416                             : en:Rancho Arrives
  204. 00:18:07.666                             : en:Director Addresses Students
  205. 00:23:13.000                             : en:Definition of Machine
  206. 00:28:49.250                             : en:Give Me Some Sunshine...
  207. 00:30:02.208                             : en:"Aal izz Well" Philosophy
  208. 00:31:29.041                             : en:Aal Izz Well...
  209. 00:37:09.250                             : en:Rancho Confronts Director
  210. 00:44:34.000                             : en:Raju's Black and White House
  211. 00:59:55.333                             : en:Chatur's Speech
  212. 01:06:27.500                             : en:Pia Breaks Up With Suhas
  213. 01:14:12.083                             : en:Zoobi Doobi...
  214. 01:20:47.125                             : en:Results Are Out
  215. 01:25:03.416                             : en:Reaching Shimla
  216. 01:28:24.833                             : en:Rancho's Mystery
  217. 01:36:50.833                             : en:Director Humilates Farhan and Raju
  218. 01:42:58.416                             : en:Drunk Rancho Lands At Director's House
  219. 01:47:41.041                             : en:Induction Motor
  220. 01:52:03.000                             : en:Jaane Rujne Denge Nahin...
  221. 01:58:04.708                             : en:Farhan and Raju Dare to Speak
  222. 02:09:01.541                             : en:Drunk Pia Comes to Rancho's Room
  223. 02:11:40.666                             : en:Pia's Wedding
  224. 02:18:18.625                             : en:Rancho Steals Question Paper
  225. 02:24:14.333                             : en:Child Delivery
  226. 02:37:46.041                             : en:Reaching Ladakh
  227. 02:48:33.241                             : en:End Credits
RAW Paste Data
We use cookies for various purposes including analytics. By continuing to use Pastebin, you agree to our use of cookies as described in the Cookies Policy. OK, I Understand
Top