iMN0

The.Mummy.3.Tomb.of.the.Dragon.Emperor.2008.1080p.BluRay.DTS.x264-CyTSuNee.mkv

Jul 4th, 2021
71
Never
Not a member of Pastebin yet? Sign Up, it unlocks many cool features!
  1. General
  2. Unique ID : 227900714408915452878070937791264614559 (0xAB7414BDE7F74E04B029F32777F2689F)
  3. Complete name : The.Mummy.3.Tomb.of.the.Dragon.Emperor.2008.1080p.BluRay.DTS.x264-CyTSuNee.mkv
  4. Format : Matroska
  5. Format version : Version 2
  6. File size : 12.3 GiB
  7. Duration : 1 h 51 min
  8. Overall bit rate : 15.8 Mb/s
  9. Encoded date : UTC 2012-03-31 18:16:25
  10. Writing application : mkvmerge v5.2.1 ('A Far Off Place') built on Jan 2 2012 23:21:10
  11. Writing library : libebml v1.2.3 + libmatroska v1.3.0
  12.  
  13. Video
  14. ID : 1
  15. Format : AVC
  16. Format/Info : Advanced Video Codec
  17. Format profile : High@L4.1
  18. Format settings : CABAC / 5 Ref Frames
  19. Format settings, CABAC : Yes
  20. Format settings, Reference frames : 5 frames
  21. Codec ID : V_MPEG4/ISO/AVC
  22. Duration : 1 h 51 min
  23. Bit rate : 14.3 Mb/s
  24. Width : 1 920 pixels
  25. Height : 800 pixels
  26. Display aspect ratio : 2.40:1
  27. Frame rate mode : Constant
  28. Frame rate : 23.976 (24000/1001) FPS
  29. Color space : YUV
  30. Chroma subsampling : 4:2:0
  31. Bit depth : 8 bits
  32. Scan type : Progressive
  33. Bits/(Pixel*Frame) : 0.388
  34. Stream size : 10.9 GiB (88%)
  35. Writing library : x264 core 120 r2146 bcd41db
  36. Encoding settings : cabac=1 / ref=5 / deblock=1:-2:-1 / analyse=0x3:0x113 / me=umh / subme=10 / psy=1 / psy_rd=1.00:0.00 / mixed_ref=1 / me_range=24 / chroma_me=1 / trellis=2 / 8x8dct=1 / cqm=0 / deadzone=21,11 / fast_pskip=1 / chroma_qp_offset=-2 / threads=6 / sliced_threads=0 / nr=0 / decimate=1 / interlaced=0 / bluray_compat=0 / constrained_intra=0 / bframes=7 / b_pyramid=2 / b_adapt=2 / b_bias=0 / direct=3 / weightb=1 / open_gop=0 / weightp=2 / keyint=250 / keyint_min=23 / scenecut=40 / intra_refresh=0 / rc_lookahead=40 / rc=2pass / mbtree=0 / bitrate=14285 / ratetol=1.0 / qcomp=0.60 / qpmin=0 / qpmax=69 / qpstep=4 / cplxblur=20.0 / qblur=0.5 / vbv_maxrate=40000 / vbv_bufsize=40000 / nal_hrd=none / ip_ratio=1.40 / pb_ratio=1.30 / aq=2:1.05 / zones=149514,160015,q=30,deblock=1:2
  37. Default : Yes
  38. Forced : No
  39.  
  40. Audio
  41. ID : 2
  42. Format : DTS
  43. Format/Info : Digital Theater Systems
  44. Codec ID : A_DTS
  45. Duration : 1 h 51 min
  46. Bit rate mode : Constant
  47. Bit rate : 1 509 kb/s
  48. Channel(s) : 6 channels
  49. Channel layout : C L R Ls Rs LFE
  50. Sampling rate : 48.0 kHz
  51. Frame rate : 93.750 FPS (512 SPF)
  52. Bit depth : 24 bits
  53. Compression mode : Lossy
  54. Stream size : 1.18 GiB (10%)
  55. Language : English
  56. Default : Yes
  57. Forced : No
  58.  
  59. Text #1
  60. ID : 3
  61. Format : UTF-8
  62. Codec ID : S_TEXT/UTF8
  63. Codec ID/Info : UTF-8 Plain Text
  64. Language : Dutch
  65. Default : Yes
  66. Forced : No
  67.  
  68. Text #2
  69. ID : 4
  70. Format : UTF-8
  71. Codec ID : S_TEXT/UTF8
  72. Codec ID/Info : UTF-8 Plain Text
  73. Title : non-English
  74. Language : English
  75. Default : No
  76. Forced : No
  77.  
  78. Menu
  79. 00:00:00.000 : en:00:00:00.000
  80. 00:05:24.074 : en:00:05:24.074
  81. 00:09:52.133 : en:00:09:52.133
  82. 00:14:15.480 : en:00:14:15.480
  83. 00:19:13.402 : en:00:19:13.402
  84. 00:24:33.681 : en:00:24:33.681
  85. 00:30:57.647 : en:00:30:57.647
  86. 00:35:30.962 : en:00:35:30.962
  87. 00:42:16.367 : en:00:42:16.367
  88. 00:48:17.686 : en:00:48:17.686
  89. 00:52:26.894 : en:00:52:26.894
  90. 00:57:28.528 : en:00:57:28.528
  91. 01:02:40.590 : en:01:02:40.590
  92. 01:09:52.230 : en:01:09:52.230
  93. 01:15:54.216 : en:01:15:54.216
  94. 01:21:00.981 : en:01:21:00.981
  95. 01:25:33.420 : en:01:25:33.420
  96. 01:33:54.963 : en:01:33:54.963
  97. 01:39:53.946 : en:01:39:53.946
  98. 01:41:28.499 : en:01:41:28.499
RAW Paste Data