SHARE
TWEET

Deceived.1991.1080p.BluRay.x264-CiNEFiLE

a guest May 28th, 2019 18 Never
Not a member of Pastebin yet? Sign Up, it unlocks many cool features!
  1. General
  2. Complete name                            : Deceived.1991.1080p.BluRay.x264-CiNEFiLE.mkv
  3. Format                                   : Matroska
  4. Format version                           : Version 4
  5. File size                                : 9.83 GiB
  6. Duration                                 : 1 h 48 min
  7. Overall bit rate                         : 13.0 Mb/s
  8. Encoded date                             : UTC 2018-04-08 21:47:59
  9. Writing application                      : mkvmerge v21.0.0 ('Tardigrades Will Inherit The Earth') 64-bit
  10. Writing library                          : libebml v1.3.5 + libmatroska v1.4.8
  11.  
  12. Video
  13. ID                                       : 1
  14. Format                                   : AVC
  15. Format/Info                              : Advanced Video Codec
  16. Format profile                           : High@L4.1
  17. Format settings                          : CABAC / 4 Ref Frames
  18. Format settings, CABAC                   : Yes
  19. Format settings, Reference frames        : 4 frames
  20. Codec ID                                 : V_MPEG4/ISO/AVC
  21. Duration                                 : 1 h 48 min
  22. Bit rate                                 : 11.5 Mb/s
  23. Width                                    : 1 920 pixels
  24. Height                                   : 1 040 pixels
  25. Display aspect ratio                     : 1.85:1
  26. Frame rate mode                          : Constant
  27. Frame rate                               : 23.976 (24000/1001) FPS
  28. Color space                              : YUV
  29. Chroma subsampling                       : 4:2:0
  30. Bit depth                                : 8 bits
  31. Scan type                                : Progressive
  32. Bits/(Pixel*Frame)                       : 0.240
  33. Stream size                              : 8.69 GiB (88%)
  34. Writing library                          : x264 core 155 r2901 7d0ff22
  35. Encoding settings                        : cabac=1 / ref=4 / deblock=1:-3:-3 / analyse=0x3:0x113 / me=umh / subme=8 / psy=1 / psy_rd=1.00:0.00 / mixed_ref=1 / me_range=16 / chroma_me=1 / trellis=2 / 8x8dct=1 / cqm=0 / deadzone=21,11 / fast_pskip=0 / chroma_qp_offset=-2 / threads=18 / lookahead_threads=3 / sliced_threads=0 / nr=0 / decimate=1 / interlaced=0 / bluray_compat=0 / constrained_intra=0 / bframes=3 / b_pyramid=2 / b_adapt=1 / b_bias=0 / direct=1 / weightb=1 / open_gop=0 / weightp=2 / keyint=250 / keyint_min=23 / scenecut=40 / intra_refresh=0 / rc_lookahead=40 / rc=2pass / mbtree=1 / bitrate=11482 / ratetol=1.0 / qcomp=0.60 / qpmin=0 / qpmax=69 / qpstep=4 / cplxblur=20.0 / qblur=0.5 / ip_ratio=1.40 / aq=1:1.00
  36. Language                                 : English
  37. Default                                  : Yes
  38. Forced                                   : No
  39.  
  40. Audio
  41. ID                                       : 2
  42. Format                                   : DTS
  43. Format/Info                              : Digital Theater Systems
  44. Codec ID                                 : A_DTS
  45. Duration                                 : 1 h 48 min
  46. Bit rate mode                            : Constant
  47. Bit rate                                 : 1 509 kb/s
  48. Channel(s)                               : 2 channels
  49. Channel layout                           : L R
  50. Sampling rate                            : 48.0 kHz
  51. Frame rate                               : 93.750 FPS (512 SPF)
  52. Bit depth                                : 24 bits
  53. Compression mode                         : Lossy
  54. Delay relative to video                  : 11 s 10 ms
  55. Stream size                              : 1.14 GiB (12%)
  56. Language                                 : English
  57. Default                                  : Yes
  58. Forced                                   : No
  59.  
  60. Text #1
  61. ID                                       : 3
  62. Format                                   : UTF-8
  63. Codec ID                                 : S_TEXT/UTF8
  64. Codec ID/Info                            : UTF-8 Plain Text
  65. Duration                                 : 1 h 41 min
  66. Bit rate                                 : 34 b/s
  67. Count of elements                        : 818
  68. Stream size                              : 25.9 KiB (0%)
  69. Language                                 : English
  70. Default                                  : No
  71. Forced                                   : No
  72.  
  73. Text #2
  74. ID                                       : 4
  75. Format                                   : UTF-8
  76. Codec ID                                 : S_TEXT/UTF8
  77. Codec ID/Info                            : UTF-8 Plain Text
  78. Duration                                 : 1 h 41 min
  79. Bit rate                                 : 34 b/s
  80. Count of elements                        : 819
  81. Stream size                              : 25.9 KiB (0%)
  82. Title                                    : SDH
  83. Language                                 : English
  84. Default                                  : No
  85. Forced                                   : No
  86.  
  87. Menu
  88. 00:00:00.000                             : en:00:00:00.000
  89. 00:09:43.541                             : en:00:09:43.541
  90. 00:19:56.529                             : en:00:19:56.529
  91. 00:35:56.654                             : en:00:35:56.654
  92. 00:49:20.124                             : en:00:49:20.124
  93. 01:02:14.773                             : en:01:02:14.773
  94. 01:15:56.093                             : en:01:15:56.093
  95. 01:31:23.812                             : en:01:31:23.812
RAW Paste Data
We use cookies for various purposes including analytics. By continuing to use Pastebin, you agree to our use of cookies as described in the Cookies Policy. OK, I Understand
 
Top