SHARE
TWEET

Untitled

enansaif Jul 22nd, 2019 58 Never
Not a member of Pastebin yet? Sign Up, it unlocks many cool features!
  1. General
  2. Unique ID                                : 168313579035577532203399676403925802029 (0x7EA004251A9975CABCF625AF1AE65C2D)
  3. Complete name                            : G:\Melvin and Howard 1980 1080p Blu-ray Remux AVC DTS-HD MA 2.0 - KRaLiMaRKo.mkv
  4. Format                                   : Matroska
  5. Format version                           : Version 4
  6. File size                                : 21.1 GiB
  7. Duration                                 : 1 h 47 min
  8. Overall bit rate mode                    : Variable
  9. Overall bit rate                         : 28.0 Mb/s
  10. Movie name                               : Melvin and Howard 1980 1080p Blu-ray Remux AVC DTS-HD MA 2.0 - KRaLiMaRKo
  11. Encoded date                             : UTC 2019-07-07 22:19:43
  12. Writing application                      : mkvmerge v35.0.0 ('All The Love In The World') 32-bit
  13. Writing library                          : libebml v1.3.9 + libmatroska v1.5.2
  14.  
  15. Video
  16. ID                                       : 1
  17. Format                                   : AVC
  18. Format/Info                              : Advanced Video Codec
  19. Format profile                           : High@L4.1
  20. Format settings                          : CABAC / 4 Ref Frames
  21. Format settings, CABAC                   : Yes
  22. Format settings, Reference frames        : 4 frames
  23. Codec ID                                 : V_MPEG4/ISO/AVC
  24. Duration                                 : 1 h 34 min
  25. Bit rate mode                            : Variable
  26. Bit rate                                 : 30.0 Mb/s
  27. Maximum bit rate                         : 35.0 Mb/s
  28. Width                                    : 1 920 pixels
  29. Height                                   : 1 080 pixels
  30. Display aspect ratio                     : 16:9
  31. Frame rate mode                          : Constant
  32. Frame rate                               : 23.976 (24000/1001) FPS
  33. Standard                                 : NTSC
  34. Color space                              : YUV
  35. Chroma subsampling                       : 4:2:0
  36. Bit depth                                : 8 bits
  37. Scan type                                : Progressive
  38. Bits/(Pixel*Frame)                       : 0.603
  39. Stream size                              : 19.8 GiB (94%)
  40. Default                                  : Yes
  41. Forced                                   : No
  42. Color range                              : Limited
  43. Color primaries                          : BT.709
  44. Transfer characteristics                 : BT.709
  45. Matrix coefficients                      : BT.709
  46.  
  47. Audio
  48. ID                                       : 2
  49. Format                                   : DTS XLL
  50. Format/Info                              : Digital Theater Systems
  51. Commercial name                          : DTS-HD Master Audio
  52. Codec ID                                 : A_DTS
  53. Duration                                 : 1 h 47 min
  54. Bit rate mode                            : Variable
  55. Bit rate                                 : 1 639 kb/s
  56. Channel(s)                               : 2 channels
  57. Channel layout                           : L R
  58. Sampling rate                            : 48.0 kHz
  59. Frame rate                               : 93.750 FPS (512 SPF)
  60. Bit depth                                : 24 bits
  61. Compression mode                         : Lossless
  62. Stream size                              : 1.23 GiB (6%)
  63. Language                                 : English
  64. Default                                  : Yes
  65. Forced                                   : No
  66.  
  67. Menu
  68. 00:00:00.000                             : en:Chapter 01
  69. 00:03:58.905                             : en:Chapter 02
  70. 00:08:06.611                             : en:Chapter 03
  71. 00:13:33.062                             : en:Chapter 04
  72. 00:15:33.975                             : en:Chapter 05
  73. 00:17:20.873                             : en:Chapter 06
  74. 00:19:29.335                             : en:Chapter 07
  75. 00:23:41.128                             : en:Chapter 08
  76. 00:26:10.152                             : en:Chapter 09
  77. 00:30:16.565                             : en:Chapter 10
  78. 00:32:20.897                             : en:Chapter 11
  79. 00:36:17.884                             : en:Chapter 12
  80. 00:41:45.294                             : en:Chapter 13
  81. 00:47:49.700                             : en:Chapter 14
  82. 00:55:02.007                             : en:Chapter 15
  83. 01:00:34.172                             : en:Chapter 16
  84. 01:07:07.774                             : en:Chapter 17
  85. 01:10:28.641                             : en:Chapter 18
  86. 01:13:24.150                             : en:Chapter 19
  87. 01:16:21.619                             : en:Chapter 20
  88. 01:19:11.121                             : en:Chapter 21
  89. 01:21:30.969                             : en:Chapter 22
  90. 01:26:09.581                             : en:Chapter 23
  91. 01:31:11.633                             : en:Chapter 24
RAW Paste Data
We use cookies for various purposes including analytics. By continuing to use Pastebin, you agree to our use of cookies as described in the Cookies Policy. OK, I Understand
 
Top