GrabHD

Untitled

Feb 27th, 2020
115
Never
Not a member of Pastebin yet? Sign Up, it unlocks many cool features!
  1. General
  2. Unique ID : 221425133544686920584899640861679140367 (0xA694EDF496821544BD2728D67AEFBE0F)
  3. Complete name : J:Having.You.2013.AMZN.WEB-DL.1080p.mkv
  4. Format : Matroska
  5. Format version : Version 4 / Version 2
  6. File size : 4.01 GiB
  7. Duration : 1 h 36 min
  8. Overall bit rate : 5 938 kb/s
  9. Encoded date : UTC 2020-02-27 08:12:10
  10. Writing application : mkvmerge v6.1.0 ('Old Devil') built on Mar 2 2013 14:32:37
  11. Writing library : libebml v1.3.0 + libmatroska v1.4.0
  12.  
  13. Video
  14. ID : 1
  15. Format : AVC
  16. Format/Info : Advanced Video Codec
  17. Format profile : High@L4
  18. Format settings : CABAC / 4 Ref Frames
  19. Format settings, CABAC : Yes
  20. Format settings, ReFrames : 4 frames
  21. Codec ID : V_MPEG4/ISO/AVC
  22. Duration : 1 h 36 min
  23. Bit rate : 5 404 kb/s
  24. Width : 1 920 pixels
  25. Height : 1 080 pixels
  26. Display aspect ratio : 16:9
  27. Frame rate mode : Constant
  28. Frame rate : 23.976 (24000/1001) FPS
  29. Color space : YUV
  30. Chroma subsampling : 4:2:0
  31. Bit depth : 8 bits
  32. Scan type : Progressive
  33. Bits/(Pixel*Frame) : 0.109
  34. Stream size : 3.65 GiB (91%)
  35. Language : English
  36. Default : Yes
  37. Forced : No
  38. Color range : Limited
  39. Color primaries : BT.709
  40. Transfer characteristics : BT.709
  41. Matrix coefficients : BT.709
  42.  
  43. Audio #1
  44. ID : 2
  45. Format : AC-3
  46. Format/Info : Audio Coding 3
  47. Codec ID : A_AC3
  48. Duration : 1 h 36 min
  49. Bit rate mode : Constant
  50. Bit rate : 192 kb/s
  51. Channel(s) : 2 channels
  52. Channel positions : Front: L R
  53. Sampling rate : 48.0 kHz
  54. Frame rate : 31.250 FPS (1536 SPF)
  55. Bit depth : 16 bits
  56. Compression mode : Lossy
  57. Stream size : 133 MiB (3%)
  58. Language : Russian
  59. Service kind : Complete Main
  60. Default : Yes
  61. Forced : No
  62.  
  63. Audio #2
  64. ID : 3
  65. Format : E-AC-3
  66. Format/Info : Enhanced Audio Coding 3
  67. Codec ID : A_EAC3
  68. Duration : 1 h 36 min
  69. Bit rate mode : Constant
  70. Bit rate : 224 kb/s
  71. Channel(s) : 2 channels
  72. Channel positions : Front: L R
  73. Sampling rate : 48.0 kHz
  74. Frame rate : 187.500 FPS (256 SPF)
  75. Compression mode : Lossy
  76. Stream size : 155 MiB (4%)
  77. Language : English
  78. Service kind : Complete Main
  79. Default : No
  80. Forced : No
  81.  
  82. Text
  83. ID : 4
  84. Format : UTF-8
  85. Codec ID : S_TEXT/UTF8
  86. Codec ID/Info : UTF-8 Plain Text
  87. Title : SDH
  88. Language : English
  89. Default : No
  90. Forced : No
RAW Paste Data