Advertisement
Henry_Kr

OPSW-2009

Mar 15th, 2022
35
Never
Not a member of Pastebin yet? Sign Up, it unlocks many cool features!
  1. Video
  2. ID : 1
  3. Format : AVC
  4. Format/Info : Advanced Video Codec
  5. Format profile : High@L4.1
  6. Format settings : CABAC / 4 Ref Frames
  7. Format settings, CABAC : Yes
  8. Format settings, Reference : 4 frames
  9. Codec ID : V_MPEG4/ISO/AVC
  10. Duration : 1 h 55 min
  11. Bit rate : 9 188 kb/s
  12. Width : 1 920 pixels
  13. Height : 1 080 pixels
  14. Display aspect ratio : 16:9
  15. Frame rate mode : Constant
  16. Frame rate : 23.976 (24000/1001) FPS
  17. Color space : YUV
  18. Chroma subsampling : 4:2:0
  19. Bit depth : 8 bits
  20. Scan type : Progressive
  21. Bits/(Pixel*Frame) : 0.185
  22. Stream size : 7.42 GiB (72%)
  23. Title : One.Piece.Strong.World.2009.1080p.BluRay.[CartoonNOW]
  24. Writing library : x264 core 104 r1683 62997d6
  25. Encoding settings : cabac=1 / ref=4 / deblock=1:-2:-2 / analyse=0x3:0x133 / me=umh / subme=9 / psy=1 / psy_rd=0.70:0.00 / mixed_ref=1 / me_range=24 / chroma_me=1 / trellis=2 / 8x8dct=1 / cqm=0 / deadzone=21,11 / fast_pskip=1 / chroma_qp_offset=-2 / threads=12 / sliced_threads=0 / nr=0 / decimate=0 / interlaced=0 / constrained_intra=0 / bframes=8 / b_pyramid=2 / b_adapt=2 / b_bias=0 / direct=3 / weightb=1 / open_gop=0 / weightp=2 / keyint=250 / keyint_min=23 / scenecut=40 / intra_refresh=0 / rc=2pass / mbtree=0 / bitrate=9188 / ratetol=1.0 / qcomp=0.60 / qpmin=9 / qpmax=22 / qpstep=4 / cplxblur=20.0 / qblur=0.5 / ip_ratio=1.40 / pb_ratio=1.30 / aq=1:0.90
  26. Language : Japanese
  27. Default : Yes
  28. Forced : No
  29.  
  30. Audio #1
  31. ID : 2
  32. Format : AC-3
  33. Format/Info : Audio Coding 3
  34. Commercial name : Dolby Digital
  35. Codec ID : A_AC3
  36. Duration : 1 h 55 min
  37. Bit rate mode : Constant
  38. Bit rate : 640 kb/s
  39. Channel(s) : 6 channels
  40. Channel layout : L R C LFE Ls Rs
  41. Sampling rate : 48.0 kHz
  42. Frame rate : 31.250 FPS (1536 SPF)
  43. Compression mode : Lossy
  44. Stream size : 529 MiB (5%)
  45. Title : AC3 5.1
  46. Language : Portuguese
  47. Service kind : Complete Main
  48. Default : Yes
  49. Forced : No
  50.  
  51. Audio #2
  52. ID : 3
  53. Format : DTS XLL
  54. Format/Info : Digital Theater Systems
  55. Commercial name : DTS-HD Master Audio
  56. Codec ID : A_DTS
  57. Duration : 1 h 55 min
  58. Bit rate mode : Variable
  59. Bit rate : 2 969 kb/s
  60. Channel(s) : 6 channels
  61. Channel layout : C L R Ls Rs LFE
  62. Sampling rate : 48.0 kHz
  63. Frame rate : 93.750 FPS (512 SPF)
  64. Bit depth : 24 bits
  65. Compression mode : Lossless
  66. Stream size : 2.40 GiB (23%)
  67. Title : DTS 5.1
  68. Language : Japanese
  69. Default : No
  70. Forced : No
  71.  
  72. Text
  73. ID : 4
  74. Format : ASS
  75. Codec ID : S_TEXT/ASS
  76. Codec ID/Info : Advanced Sub Station Alpha
  77. Duration : 1 h 55 min
  78. Bit rate : 107 b/s
  79. Count of elements : 1317
  80. Compression mode : Lossless
  81. Stream size : 90.4 KiB (0%)
  82. Title : Completa
  83. Language : Portuguese
  84. Default : No
  85. Forced : No
Advertisement
Advertisement
Advertisement
RAW Paste Data Copied
Advertisement