Ledger Nano X - The secure hardware wallet
SHARE
TWEET

12 Monkeys 1080p

bluecity Feb 21st, 2020 84 Never
Not a member of Pastebin yet? Sign Up, it unlocks many cool features!
  1. Per Episode                              :
  2. Format                                   : Matroska
  3. Format version                           : Version 2
  4. File size                                : 1.15 GiB
  5. Duration                                 : 47 min 33 s
  6. Overall bit rate                         : 3 447 kb/s
  7. Movie name                               : 12.Monkeys.S01E01.BluRay.10Bit.1080p.DD5.1.H265-d3g
  8. Encoded date                             : UTC 2018-09-13 02:13:42
  9. Writing application                      : DVDFab 10.0.9.2
  10. Writing library                          : libebml v1.3.4 + libmatroska v1.4.5
  11.  
  12. Video
  13. ID                                       : 1
  14. Format                                   : HEVC
  15. Format/Info                              : High Efficiency Video Coding
  16. Format profile                           : Main 10@L4@Main
  17. Codec ID                                 : V_MPEGH/ISO/HEVC
  18. Duration                                 : 47 min 32 s
  19. Bit rate                                 : 2 989 kb/s
  20. Width                                    : 1 920 pixels
  21. Height                                   : 1 080 pixels
  22. Display aspect ratio                     : 16:9
  23. Frame rate mode                          : Constant
  24. Frame rate                               : 23.976 (24000/1001) FPS
  25. Color space                              : YUV
  26. Chroma subsampling                       : 4:2:0
  27. Bit depth                                : 10 bits
  28. Bits/(Pixel*Frame)                       : 0.060
  29. Stream size                              : 1 016 MiB (87%)
  30. Default                                  : Yes
  31. Forced                                   : No
  32. Color range                              : Limited
  33. Color primaries                          : BT.709
  34. Transfer characteristics                 : BT.709
  35. Matrix coefficients                      : BT.709
  36.  
  37. Audio
  38. ID                                       : 2
  39. Format                                   : AC-3
  40. Format/Info                              : Audio Coding 3
  41. Commercial name                          : Dolby Digital
  42. Codec ID                                 : A_AC3
  43. Duration                                 : 47 min 33 s
  44. Bit rate mode                            : Constant
  45. Bit rate                                 : 448 kb/s
  46. Channel(s)                               : 6 channels
  47. Channel layout                           : L R C LFE Ls Rs
  48. Sampling rate                            : 48.0 kHz
  49. Frame rate                               : 31.250 FPS (1536 SPF)
  50. Bit depth                                : 16 bits
  51. Compression mode                         : Lossy
  52. Stream size                              : 152 MiB (13%)
  53. Language                                 : English
  54. Service kind                             : Complete Main
  55. Default                                  : Yes
  56. Forced                                   : No
RAW Paste Data
We use cookies for various purposes including analytics. By continuing to use Pastebin, you agree to our use of cookies as described in the Cookies Policy. OK, I Understand
Top