daily pastebin goal
78%
SHARE
TWEET

CBJR 2003

elPanochero Feb 13th, 2018 263 Never
Not a member of Pastebin yet? Sign Up, it unlocks many cool features!
  1. Exact Audio Copy V1.0 beta 4 from 7. December 2014
  2.  
  3. EAC extraction logfile from 23. February 2015, 18:35
  4.  
  5. Charlie Brown Jr. / Acústico MTV
  6.  
  7. Used drive  : PLEXTOR DVDR   PX-891SAW   Adapter: 1  ID: 0
  8.  
  9. Read mode               : Secure
  10. Utilize accurate stream : Yes
  11. Defeat audio cache      : Yes
  12. Make use of C2 pointers : No
  13.  
  14. Read offset correction                      : 48
  15. Overread into Lead-In and Lead-Out          : No
  16. Fill up missing offset samples with silence : Yes
  17. Delete leading and trailing silent blocks   : No
  18. Null samples used in CRC calculations       : Yes
  19. Used interface                              : Native Win32 interface for Win NT & 2000
  20.  
  21. Used output format : Internal WAV Routines
  22. Sample format      : 44.100 Hz; 16 Bit; Stereo
  23.  
  24.  
  25. TOC of the extracted CD
  26.  
  27.      Track |   Start  |  Length  | Start sector | End sector
  28.     ---------------------------------------------------------
  29.         1  |  0:00.00 |  1:53.67 |         0    |     8541  
  30.         2  |  1:53.67 |  4:32.00 |      8542    |    28941  
  31.         3  |  6:25.67 |  3:44.73 |     28942    |    45814  
  32.         4  | 10:10.65 |  3:09.70 |     45815    |    60059  
  33.         5  | 13:20.60 |  4:22.40 |     60060    |    79749  
  34.         6  | 17:43.25 |  3:13.70 |     79750    |    94294  
  35.         7  | 20:57.20 |  3:04.07 |     94295    |   108101  
  36.         8  | 24:01.27 |  2:52.60 |    108102    |   121061  
  37.         9  | 26:54.12 |  2:08.08 |    121062    |   130669  
  38.        10  | 29:02.20 |  3:10.72 |    130670    |   144991  
  39.        11  | 32:13.17 |  5:20.25 |    144992    |   169016  
  40.        12  | 37:33.42 |  4:42.25 |    169017    |   190191  
  41.        13  | 42:15.67 |  4:00.15 |    190192    |   208206  
  42.        14  | 46:16.07 |  4:06.08 |    208207    |   226664  
  43.        15  | 50:22.15 |  5:17.12 |    226665    |   250451  
  44.        16  | 55:39.27 |  3:10.30 |    250452    |   264731  
  45.        17  | 58:49.57 |  2:46.63 |    264732    |   277244  
  46.        18  | 61:36.45 |  2:20.15 |    277245    |   287759  
  47.        19  | 63:56.60 |  2:31.50 |    287760    |   299134  
  48.        20  | 66:28.35 |  3:49.62 |    299135    |   316371  
  49.        21  | 72:50.22 |  7:02.53 |    327772    |   359474  
  50.  
  51.  
  52. Range status and errors
  53.  
  54. Selected range
  55.  
  56.      Filename D:\EAC Rips\= A•W•B =\Rip by alvaro_wb\Charlie Brown Jr. - Acústico MTV.wav
  57.  
  58.      Peak level 100.0 %
  59.      Extraction speed 8.3 X
  60.      Range quality 99.9 %
  61.      Test CRC 1A676158
  62.      Copy CRC 1A676158
  63.      Copy OK
  64.  
  65. No errors occurred
  66.  
  67.  
  68. AccurateRip summary
  69.  
  70. Track  1  cannot be verified as accurate (confidence 2)  [DBB89A11], AccurateRip returned [CEB0457F]  (AR v2)
  71. Track  2  cannot be verified as accurate (confidence 1)  [F7186D29], AccurateRip returned [757AF006]  (AR v2)
  72. Track  3  cannot be verified as accurate (confidence 1)  [511FDF64], AccurateRip returned [031CA552]  (AR v2)
  73. Track  4  cannot be verified as accurate (confidence 1)  [B3FA036B], AccurateRip returned [52CB66D6]  (AR v2)
  74. Track  5  cannot be verified as accurate (confidence 1)  [717CE12C], AccurateRip returned [8CDE025C]  (AR v2)
  75. Track  6  cannot be verified as accurate (confidence 1)  [D67D7332], AccurateRip returned [A58CD693]  (AR v2)
  76. Track  7  cannot be verified as accurate (confidence 2)  [400102F2], AccurateRip returned [AD7A0A1C]  (AR v2)
  77. Track  8  cannot be verified as accurate (confidence 2)  [EACC48E2], AccurateRip returned [95D97CB4]  (AR v2)
  78. Track  9  cannot be verified as accurate (confidence 2)  [39939572], AccurateRip returned [31B22764]  (AR v2)
  79. Track 10  cannot be verified as accurate (confidence 2)  [07E201C9], AccurateRip returned [D6780C8D]  (AR v2)
  80. Track 11  cannot be verified as accurate (confidence 1)  [7D41DF80], AccurateRip returned [01E9BA8F]  (AR v2)
  81. Track 12  cannot be verified as accurate (confidence 2)  [91F98D25], AccurateRip returned [5E991F6D]  (AR v2)
  82. Track 13  cannot be verified as accurate (confidence 2)  [DC66313F], AccurateRip returned [B80D7A62]  (AR v2)
  83. Track 14  cannot be verified as accurate (confidence 2)  [9B72AFA8], AccurateRip returned [856B9308]  (AR v2)
  84. Track 15  cannot be verified as accurate (confidence 2)  [0856C9C2], AccurateRip returned [26D3424A]  (AR v2)
  85. Track 16  cannot be verified as accurate (confidence 2)  [FF031968], AccurateRip returned [C8391016]  (AR v2)
  86. Track 17  cannot be verified as accurate (confidence 2)  [65FEC8F6], AccurateRip returned [BC1FF7AC]  (AR v2)
  87. Track 18  cannot be verified as accurate (confidence 2)  [895C6B2A], AccurateRip returned [4E3D91A0]  (AR v2)
  88. Track 19  cannot be verified as accurate (confidence 2)  [D9027815], AccurateRip returned [9F5432A3]  (AR v2)
  89. Track 20  cannot be verified as accurate (confidence 1)  [241A76FF], AccurateRip returned [7F4ED064]  (AR v2)
  90.  
  91. No tracks could be verified as accurate
  92. You may have a different pressing from the one(s) in the database
  93.  
  94. End of status report
  95.  
  96. ---- CUETools DB Plugin V2.1.4
  97.  
  98. [CTDB TOCID: WYoAeqJU87Oko.24IUJgahNIDjs-] found
  99. Submit result: WYoAeqJU87Oko.24IUJgahNIDjs- has been uploaded
  100. Track | CTDB Status
  101.   1   | (0/7) No match
  102.   2   | (0/7) No match
  103.   3   | (0/7) No match
  104.   4   | (0/7) No match
  105.   5   | (0/7) No match
  106.   6   | (0/7) No match
  107.   7   | (0/7) No match
  108.   8   | (0/7) No match
  109.   9   | (0/7) No match
  110.  10   | (0/7) No match
  111.  11   | (0/7) No match
  112.  12   | (0/7) No match
  113.  13   | (0/7) No match
  114.  14   | (0/7) No match
  115.  15   | (0/7) No match
  116.  16   | (0/7) No match
  117.  17   | (0/7) No match
  118.  18   | (0/7) No match
  119.  19   | (0/7) No match
  120.  20   | (0/7) No match
  121.  
  122.  
  123. ==== Log checksum F76AE55DD5035AD556F6DA0C4AA14D28077E899C396CCF65D546C29BC2DA3732 ====
RAW Paste Data
We use cookies for various purposes including analytics. By continuing to use Pastebin, you agree to our use of cookies as described in the Cookies Policy. OK, I Understand
 
Top