SHARE
TWEET

Untitled

overdrive80 Feb 26th, 2013 32 Never
Not a member of Pastebin yet? Sign Up, it unlocks many cool features!
  1. General
  2. ID                                       : 15 (0xF)
  3. Complete name                            : C:\Users\Isra\Dropbox\Public\INAZUMA ELEVEN_ '┬íLA PRUEBA DEL CAPITAN!'(26022013_191942).TS
  4. Format                                   : MPEG-TS
  5. File size                                : 27.1 MiB
  6. Duration                                 : 1mn 19s
  7. Overall bit rate mode                    : Variable
  8. Overall bit rate                         : 2 838 Kbps
  9.  
  10. Video
  11. ID                                       : 101 (0x65)
  12. Menu ID                                  : 184 (0xB8)
  13. Format                                   : MPEG Video
  14. Format version                           : Version 2
  15. Format profile                           : Main@Main
  16. Format settings, BVOP                    : Yes
  17. Format settings, Matrix                  : Custom
  18. Format settings, GOP                     : Variable
  19. Codec ID                                 : 2
  20. Duration                                 : 1mn 19s
  21. Bit rate mode                            : Variable
  22. Bit rate                                 : 2 568 Kbps
  23. Maximum bit rate                         : 15.0 Mbps
  24. Width                                    : 720 pixels
  25. Height                                   : 576 pixels
  26. Display aspect ratio                     : 16:9
  27. Frame rate                               : 25.000 fps
  28. Standard                                 : PAL
  29. Color space                              : YUV
  30. Chroma subsampling                       : 4:2:0
  31. Bit depth                                : 8 bits
  32. Scan type                                : Interlaced
  33. Scan order                               : Top Field First
  34. Compression mode                         : Lossy
  35. Bits/(Pixel*Frame)                       : 0.248
  36. Stream size                              : 24.2 MiB (89%)
  37.  
  38. Audio
  39. ID                                       : 103 (0x67)
  40. Menu ID                                  : 184 (0xB8)
  41. Format                                   : MPEG Audio
  42. Format version                           : Version 1
  43. Format profile                           : Layer 2
  44. Codec ID                                 : 4
  45. Duration                                 : 1mn 19s
  46. Bit rate mode                            : Constant
  47. Bit rate                                 : 128 Kbps
  48. Maximum bit rate                         : 138 Kbps
  49. Channel(s)                               : 2 channels
  50. Sampling rate                            : 48.0 KHz
  51. Compression mode                         : Lossy
  52. Delay relative to video                  : -770ms
  53. Stream size                              : 1.22 MiB (4%)
  54. Language                                 : Spanish
  55.  
  56. Text #1
  57. ID                                       : 107 (0x6B)-100
  58. Menu ID                                  : 184 (0xB8)
  59. Format                                   : Teletext
  60. Language                                 : Spanish
  61.  
  62. Text #2
  63. ID                                       : 107 (0x6B)-888
  64. Menu ID                                  : 184 (0xB8)
  65. Format                                   : Teletext Subtitle
  66. Language                                 : Spanish
  67.  
  68. Menu
  69. ID                                       : 100 (0x64)
  70. Menu ID                                  : 184 (0xB8)
  71. Duration                                 : 1mn 19s
  72. List                                     : 101 (0x65) (MPEG Video) / 103 (0x67) (MPEG Audio, Spanish) / 104 (0x68) (MPEG Audio) / 107 (0x6B) () / 2302 (0x8FE) () / 2303 (0x8FF) () / 2304 (0x900) () / 2305 (0x901) ()
  73. Language                                 :  / Spanish
  74. Maximum bit rate                         : 5813600
RAW Paste Data
We use cookies for various purposes including analytics. By continuing to use Pastebin, you agree to our use of cookies as described in the Cookies Policy. OK, I Understand
Top