Guest User

Untitled

a guest
Oct 11th, 2019
261
Never
Not a member of Pastebin yet? Sign Up, it unlocks many cool features!
  1. General
  2. Unique ID : 209456095748951303446465210520369988872 (0x9D93C6D4BEC727B8BEA50535BB058508)
  3. Complete name : Stockholm.2019.1080p.Bluray.X264-EVO
  4. Format : Matroska
  5. Format version : Version 4
  6. File size : 7.23 GiB
  7. Duration : 1 h 32 min
  8. Overall bit rate : 11.2 Mb/s
  9. Movie name : EVO
  10. Encoded date : UTC 2019-10-11 12:22:13
  11. Writing application : mkvmerge v6.7.0 ('Back to the Ground') 64bit built on Jan 8 2014 15:10:52
  12. Writing library : libebml v1.3.0 + libmatroska v1.4.1
  13.  
  14. Video
  15. ID : 1
  16. Format : AVC
  17. Format/Info : Advanced Video Codec
  18. Format profile : High@L4.1
  19. Format settings : CABAC / 5 Ref Frames
  20. Format settings, CABAC : Yes
  21. Format settings, Reference frames : 5 frames
  22. Codec ID : V_MPEG4/ISO/AVC
  23. Duration : 1 h 32 min
  24. Bit rate : 9 666 kb/s
  25. Width : 1 920 pixels
  26. Height : 804 pixels
  27. Display aspect ratio : 2.40:1
  28. Frame rate mode : Constant
  29. Frame rate : 24.000 FPS
  30. Color space : YUV
  31. Chroma subsampling : 4:2:0
  32. Bit depth : 8 bits
  33. Scan type : Progressive
  34. Bits/(Pixel*Frame) : 0.261
  35. Stream size : 6.11 GiB (85%)
  36. Writing library : x264 core 157 r2945 72db437
  37. Encoding settings : cabac=1 / ref=5 / deblock=1:-2:-2 / analyse=0x3:0x133 / me=hex / subme=7 / psy=1 / psy_rd=1.05:0.15 / mixed_ref=1 / me_range=16 / chroma_me=1 / trellis=1 / 8x8dct=1 / cqm=0 / deadzone=21,11 / fast_pskip=1 / chroma_qp_offset=-3 / threads=24 / lookahead_threads=4 / sliced_threads=0 / nr=0 / decimate=1 / interlaced=0 / bluray_compat=0 / constrained_intra=0 / bframes=3 / b_pyramid=2 / b_adapt=1 / b_bias=0 / direct=1 / weightb=1 / open_gop=0 / weightp=2 / keyint=240 / keyint_min=24 / scenecut=40 / intra_refresh=0 / rc_lookahead=40 / rc=2pass / mbtree=1 / bitrate=9666 / ratetol=1.0 / qcomp=0.65 / qpmin=0 / qpmax=69 / qpstep=4 / cplxblur=20.0 / qblur=0.5 / vbv_maxrate=50000 / vbv_bufsize=62500 / nal_hrd=none / filler=0 / ip_ratio=1.40 / aq=1:1.00
  38. Language : English
  39. Default : Yes
  40. Forced : No
  41.  
  42. Audio
  43. ID : 2
  44. Format : DTS
  45. Format/Info : Digital Theater Systems
  46. Codec ID : A_DTS
  47. Duration : 1 h 32 min
  48. Bit rate mode : Constant
  49. Bit rate : 1 509 kb/s
  50. Channel(s) : 6 channels
  51. Channel layout : C L R Ls Rs LFE
  52. Sampling rate : 48.0 kHz
  53. Frame rate : 93.750 FPS (512 SPF)
  54. Bit depth : 24 bits
  55. Compression mode : Lossy
  56. Stream size : 1 000 MiB (14%)
  57. Title : DTS
  58. Language : English
  59. Default : No
  60. Forced : No
  61.  
  62. Menu
  63. 00:00:00.000 : :00:00:00.000
  64. 00:04:02.409 : :00:04:02.409
  65. 00:09:22.604 : :00:09:22.604
  66. 00:14:21.486 : :00:14:21.486
  67. 00:20:25.766 : :00:20:25.766
  68. 00:24:07.863 : :00:24:07.863
  69. 00:29:23.637 : :00:29:23.637
  70. 00:35:29.461 : :00:35:29.461
  71. 00:39:58.563 : :00:39:58.563
  72. 00:43:48.417 : :00:43:48.417
  73. 00:49:34.013 : :00:49:34.013
  74. 00:55:20.651 : :00:55:20.651
  75. 01:00:16.780 : :01:00:16.780
  76. 01:04:07.093 : :01:04:07.093
  77. 01:10:11.249 : :01:10:11.249
  78. 01:14:09.320 : :01:14:09.320
  79. 01:19:38.190 : :01:19:38.190
  80. 01:25:36.840 : :01:25:36.840
RAW Paste Data