SHARE
TWEET

UNKLE - belfast may 2000 CD2

a guest Aug 3rd, 2016 221 Never
Not a member of Pastebin yet? Sign Up, it unlocks many cool features!
  1. TITLE "Belfast May 2000"
  2. PERFORMER "UNKLE"
  3. FILE "belfast_may_2000_cd2.mp3" MP3
  4. REM NEW-TRACK
  5.   TRACK 01 AUDIO
  6.   TITLE "Higher State Of Consciousness"
  7.   PERFORMER "Josh Wink"
  8.   INDEX 01 00:00:00
  9. REM NEW-TRACK
  10.   TRACK 02 AUDIO
  11.   TITLE "The Egyptian"
  12.   PERFORMER "Bushwacka!"
  13.   INDEX 01 05:28:47
  14. REM NEW-TRACK
  15.   TRACK 03 AUDIO
  16.   TITLE "Tomorrow Never Knows (UNKLE Sounds Edit)"
  17.   PERFORMER "The Beatles"
  18.   INDEX 01 14:35:70
  19. REM NEW-TRACK
  20.   TRACK 04 AUDIO
  21.   TITLE "Rez"
  22.   PERFORMER "Underworld"
  23.   INDEX 01 19:49:07
  24. REM NEW-TRACK
  25.   TRACK 05 AUDIO
  26.   TITLE "Everything In Its Right Place (UNKLE Sounds Edit)"
  27.   PERFORMER "Radiohead"
  28.   INDEX 01 26:36:51
  29. REM NEW-TRACK
  30.   TRACK 06 AUDIO
  31.   TITLE "Love Story"
  32.   PERFORMER "Layo & Bushwacka!"
  33.   INDEX 01 32:57:28
  34. REM NEW-TRACK
  35.   TRACK 07 AUDIO
  36.   TITLE "Space Invaders"
  37.   PERFORMER "Hatiras"
  38.   INDEX 01 37:52:62
  39. REM NEW-TRACK
  40.   TRACK 08 AUDIO
  41.   TITLE "The Chain (UNKLE Sounds Edit)"
  42.   PERFORMER "Fleetwood Mac"
  43.   INDEX 01 42:43:46
  44. REM NEW-TRACK
  45.   TRACK 09 AUDIO
  46.   TITLE "Gyromancer (False Prophet Remix)"
  47.   PERFORMER "PMT"
  48.   INDEX 01 46:03:60
  49. REM NEW-TRACK
  50.   TRACK 10 AUDIO
  51.   TITLE "Scram"
  52.   PERFORMER "Plump DJs"
  53.   INDEX 01 50:13:46
  54. REM NEW-TRACK
  55.   TRACK 11 AUDIO
  56.   TITLE "Put Your Hands Up (Instrumental)"
  57.   PERFORMER "Reflex (7)"
  58.   INDEX 01 54:12:46
  59. REM NEW-TRACK
  60.   TRACK 12 AUDIO
  61.   TITLE "Jump N Shout (Stanton Warriors Remix)"
  62.   PERFORMER "Basement Jaxx"
  63.   INDEX 01 60:38:29
  64. REM NEW-TRACK
  65.   TRACK 13 AUDIO
  66.   TITLE "138 Trek"
  67.   PERFORMER "DJ Zinc"
  68.   INDEX 01 65:05:67
  69. REM NEW-TRACK
  70.   TRACK 14 AUDIO
  71.   TITLE "Camels (DJ Zinc Remix)"
  72.   PERFORMER "Santos"
  73.   INDEX 01 70:02:71
  74. REM END-TITLE
RAW Paste Data
We use cookies for various purposes including analytics. By continuing to use Pastebin, you agree to our use of cookies as described in the Cookies Policy. OK, I Understand
Not a member of Pastebin yet?
Sign Up, it unlocks many cool features!
 
Top