Guest User

Sex.Drive.2008.1080p.BluRay.DD5.1.x264.L4.1.CtrlHD

a guest
May 19th, 2019
33
Never
Not a member of Pastebin yet? Sign Up, it unlocks many cool features!
  1. General
  2. Complete name                            : Sex.Drive.2008.1080p.BluRay.DD5.1.x264.L4.1.-.CtrlHD.mkv
  3. Format                                   : Matroska
  4. Format version                           : Version 2
  5. File size                                : 10.2 GiB
  6. Duration                                 : 1 h 49 min
  7. Overall bit rate mode                    : Variable
  8. Overall bit rate                         : 13.4 Mb/s
  9. Encoded date                             : UTC 2009-09-14 05:21:05
  10. Writing application                      : mkvmerge v2.9.8 ('C'est le bon') built on Aug 24 2009 17:34:03
  11. Writing library                          : libebml v0.7.7 + libmatroska v0.8.1
  12. Attachments                              : CronosPro-Bold.ttf / CronosPro-Semibold.ttf / CronosPro-SemiboldIt.ttf
  13.  
  14. Video
  15. ID                                       : 1
  16. Format                                   : AVC
  17. Format/Info                              : Advanced Video Codec
  18. Format profile                           : High@L4.1
  19. Format settings                          : CABAC / 3 Ref Frames
  20. Format settings, CABAC                   : Yes
  21. Format settings, Reference frames        : 3 frames
  22. Codec ID                                 : V_MPEG4/ISO/AVC
  23. Duration                                 : 1 h 49 min
  24. Bit rate                                 : 12.0 Mb/s
  25. Width                                    : 1 920 pixels
  26. Height                                   : 1 080 pixels
  27. Display aspect ratio                     : 16:9
  28. Frame rate mode                          : Constant
  29. Frame rate                               : 23.976 FPS
  30. Color space                              : YUV
  31. Chroma subsampling                       : 4:2:0
  32. Bit depth                                : 8 bits
  33. Scan type                                : Progressive
  34. Bits/(Pixel*Frame)                       : 0.241
  35. Stream size                              : 8.96 GiB (88%)
  36. Writing library                          : x264 core 66 r1114M a933a3e
  37. Encoding settings                        : cabac=1 / ref=3 / deblock=1:-1:-1 / analyse=0x3:0x113 / me=umh / subme=7 / psy_rd=1.0:0.0 / mixed_ref=1 / me_range=18 / chroma_me=1 / trellis=2 / 8x8dct=1 / cqm=0 / deadzone=21,11 / chroma_qp_offset=-2 / threads=3 / nr=0 / decimate=1 / mbaff=0 / bframes=3 / b_pyramid=0 / b_adapt=1 / b_bias=0 / direct=1 / wpredb=1 / keyint=250 / keyint_min=25 / scenecut=40(pre) / rc=2pass / bitrate=12000 / ratetol=1.0 / qcomp=0.60 / qpmin=10 / qpmax=51 / qpstep=4 / cplxblur=20.0 / qblur=0.5 / ip_ratio=1.40 / pb_ratio=1.30 / aq=1:1.00
  38. Language                                 : English
  39. Default                                  : Yes
  40. Forced                                   : No
  41.  
  42. Audio #1
  43. ID                                       : 2
  44. Format                                   : AC-3
  45. Format/Info                              : Audio Coding 3
  46. Commercial name                          : Dolby Digital
  47. Codec ID                                 : A_AC3
  48. Duration                                 : 1 h 49 min
  49. Bit rate mode                            : Constant
  50. Bit rate                                 : 640 kb/s
  51. Channel(s)                               : 6 channels
  52. Channel layout                           : L R C LFE Ls Rs
  53. Sampling rate                            : 48.0 kHz
  54. Frame rate                               : 31.250 FPS (1536 SPF)
  55. Bit depth                                : 16 bits
  56. Compression mode                         : Lossy
  57. Stream size                              : 501 MiB (5%)
  58. Title                                    : [D] AC3 5.1 ch 640 kbps
  59. Language                                 : Russian
  60. Service kind                             : Complete Main
  61. Default                                  : Yes
  62. Forced                                   : No
  63.  
  64. Audio #2
  65. ID                                       : 3
  66. Format                                   : AC-3
  67. Format/Info                              : Audio Coding 3
  68. Commercial name                          : Dolby Digital
  69. Codec ID                                 : A_AC3
  70. Duration                                 : 1 h 49 min
  71. Bit rate mode                            : Constant
  72. Bit rate                                 : 640 kb/s
  73. Channel(s)                               : 6 channels
  74. Channel layout                           : L R C LFE Ls Rs
  75. Sampling rate                            : 48.0 kHz
  76. Frame rate                               : 31.250 FPS (1536 SPF)
  77. Bit depth                                : 16 bits
  78. Compression mode                         : Lossy
  79. Stream size                              : 501 MiB (5%)
  80. Title                                    : [O] AC3 5.1 ch 640 kbps
  81. Language                                 : English
  82. Service kind                             : Complete Main
  83. Default                                  : No
  84. Forced                                   : No
  85.  
  86. Audio #3
  87. ID                                       : 4
  88. Format                                   : Vorbis
  89. Format settings, Floor                   : 1
  90. Codec ID                                 : A_VORBIS
  91. Duration                                 : 1 h 49 min
  92. Bit rate mode                            : Variable
  93. Bit rate                                 : 80.0 kb/s
  94. Channel(s)                               : 2 channels
  95. Sampling rate                            : 48.0 kHz
  96. Compression mode                         : Lossy
  97. Stream size                              : 62.6 MiB (1%)
  98. Title                                    : [O] OGG 2.0 ch 80 Kbps [Commentary]
  99. Writing application                      : Made with BeSweet v1.5b31
  100. Writing library                          : libVorbis 1.0 (UTC 2002-07-17)
  101. Language                                 : English
  102. Default                                  : No
  103. Forced                                   : No
  104. Encoded_Application/Url                  : http://DSPguru.doom9.org
  105.  
  106. Text #1
  107. ID                                       : 5
  108. Format                                   : UTF-8
  109. Codec ID                                 : S_TEXT/UTF8
  110. Codec ID/Info                            : UTF-8 Plain Text
  111. Language                                 : Russian
  112. Default                                  : No
  113. Forced                                   : No
  114.  
  115. Text #2
  116. ID                                       : 6
  117. Format                                   : ASS
  118. Codec ID                                 : S_TEXT/ASS
  119. Codec ID/Info                            : Advanced Sub Station Alpha
  120. Compression mode                         : Lossless
  121. Language                                 : English
  122. Default                                  : No
  123. Forced                                   : No
RAW Paste Data