SHARE
TWEET

Batman Hush BluRay 1080p

dirtyharrys Jul 20th, 2019 (edited) 16 Never
Not a member of Pastebin yet? Sign Up, it unlocks many cool features!
  1. General
  2. Unique ID                   : 227684142469862615983091000765337935162 (0xAB4A5EEBBB5FC83BA37B8878FD9D9D3A)
  3. Complete name               : E:\Batman.Hush.2019.1080p.BluRay.x264\Batman.Hush.2019.1080p.BluRay.x264.mkv
  4. Format                      : Matroska
  5. Format version              : Version 4
  6. File size                   : 1.95 GiB
  7. Duration                    : 1 h 22 min
  8. Overall bit rate            : 3 408 kb/s
  9. Movie name                  : Batman Hush BR-RIP / Batman Hush BR-RIP
  10. Encoded date                : UTC 2019-08-04 07:30:01
  11. Writing application         : mkvmerge v30.1.0 ('Forever And More') 32-bit
  12. Writing library             : libebml v1.3.6 + libmatroska v1.4.9
  13. Copyright                   : Movies HDs 2019
  14. ARTIST                      : HarshLearner
  15.  
  16. Video
  17. ID                          : 1
  18. Format                      : AVC
  19. Format/Info                 : Advanced Video Codec
  20. Format profile              : High@L4.1
  21. Format settings             : CABAC / 4 Ref Frames
  22. Format settings, CABAC      : Yes
  23. Format settings, ReFrames   : 4 frames
  24. Codec ID                    : V_MPEG4/ISO/AVC
  25. Duration                    : 1 h 22 min
  26. Bit rate                    : 2 500 kb/s
  27. Width                       : 1 920 pixels
  28. Height                      : 1 080 pixels
  29. Display aspect ratio        : 16:9
  30. Frame rate mode             : Constant
  31. Frame rate                  : 23.976 (23976/1000) FPS
  32. Color space                 : YUV
  33. Chroma subsampling          : 4:2:0
  34. Bit depth                   : 8 bits
  35. Scan type                   : Progressive
  36. Bits/(Pixel*Frame)          : 0.050
  37. Stream size                 : 1.43 GiB (73%)
  38. Title                       : Batman Hush
  39. Writing library             : x264 core 152 r2851M ba24899
  40. Default                     : Yes
  41. Forced                      : No
  42.  
  43. Audio #1
  44. ID                          : 2
  45. Format                      : AC-3
  46. Format/Info                 : Audio Coding 3
  47. Commercial name             : Dolby Digital
  48. Codec ID                    : A_AC3
  49. Duration                    : 1 h 22 min
  50. Bit rate mode               : Constant
  51. Bit rate                    : 448 kb/s
  52. Channel(s)                  : 6 channels
  53. Channel layout              : L R C LFE Ls Rs
  54. Sampling rate               : 48.0 kHz
  55. Frame rate                  : 31.250 FPS (1536 SPF)
  56. Bit depth                   : 16 bits
  57. Compression mode            : Lossy
  58. Stream size                 : 263 MiB (13%)
  59. Language                    : English
  60. Service kind                : Complete Main
  61. Default                     : No
  62. Forced                      : No
  63.  
  64. Audio #2
  65. ID                          : 3
  66. Format                      : AC-3
  67. Format/Info                 : Audio Coding 3
  68. Commercial name             : Dolby Digital
  69. Codec ID                    : A_AC3
  70. Duration                    : 1 h 22 min
  71. Bit rate mode               : Constant
  72. Bit rate                    : 448 kb/s
  73. Channel(s)                  : 6 channels
  74. Channel layout              : L R C LFE Ls Rs
  75. Sampling rate               : 48.0 kHz
  76. Frame rate                  : 31.250 FPS (1536 SPF)
  77. Bit depth                   : 16 bits
  78. Compression mode            : Lossy
  79. Stream size                 : 263 MiB (13%)
  80. Language                    : Spanish
  81. Service kind                : Complete Main
  82. Default                     : Yes
  83. Forced                      : Yes
  84.  
  85. Text #1
  86. ID                          : 4
  87. Format                      : PGS
  88. Muxing mode                 : zlib
  89. Codec ID                    : S_HDMV/PGS
  90. Codec ID/Info               : Picture based subtitle format used on BDs/HD-DVDs
  91. Duration                    : 1 h 20 min
  92. Bit rate                    : 28.5 kb/s
  93. Count of elements           : 2010
  94. Stream size                 : 16.5 MiB (1%)
  95. Language                    : Spanish
  96. Default                     : No
  97. Forced                      : No
  98.  
  99. Text #2
  100. ID                          : 5
  101. Format                      : PGS
  102. Muxing mode                 : zlib
  103. Codec ID                    : S_HDMV/PGS
  104. Codec ID/Info               : Picture based subtitle format used on BDs/HD-DVDs
  105. Duration                    : 29 min 49 s
  106. Bit rate                    : 300 b/s
  107. Count of elements           : 8
  108. Stream size                 : 65.6 KiB (0%)
  109. Language                    : Spanish
  110. Default                     : No
  111. Forced                      : No
  112.  
  113. Text #3
  114. ID                          : 6
  115. Format                      : UTF-8
  116. Codec ID                    : S_TEXT/UTF8
  117. Codec ID/Info               : UTF-8 Plain Text
  118. Duration                    : 1 h 17 min
  119. Bit rate                    : 64 b/s
  120. Count of elements           : 1381
  121. Stream size                 : 36.6 KiB (0%)
  122. Title                       : English SDH
  123. Language                    : English
  124. Default                     : No
  125. Forced                      : No
  126.  
  127. Text #4
  128. ID                          : 7
  129. Format                      : UTF-8
  130. Codec ID                    : S_TEXT/UTF8
  131. Codec ID/Info               : UTF-8 Plain Text
  132. Duration                    : 1 h 17 min
  133. Bit rate                    : 51 b/s
  134. Count of elements           : 1004
  135. Stream size                 : 29.3 KiB (0%)
  136. Language                    : Spanish
  137. Default                     : Yes
  138. Forced                      : Yes
  139.  
  140. Text #5
  141. ID                          : 8
  142. Format                      : UTF-8
  143. Codec ID                    : S_TEXT/UTF8
  144. Codec ID/Info               : UTF-8 Plain Text
  145. Duration                    : 29 min 49 s
  146. Bit rate                    : 0 b/s
  147. Count of elements           : 4
  148. Stream size                 : 88.0 Bytes (0%)
  149. Language                    : Spanish
  150. Default                     : No
  151. Forced                      : No
  152.  
  153. Menu
  154. 00:00:00.000                : en:Chapter 01
  155. 00:10:00.016                : en:Chapter 02
  156. 00:18:57.386                : en:Chapter 03
  157. 00:28:54.232                : en:Chapter 04
  158. 00:37:33.084                : en:Chapter 05
  159. 00:44:44.557                : en:Chapter 06
  160. 00:50:49.546                : en:Chapter 07
  161. 00:59:13.008                : en:Chapter 08
  162. 01:07:59.284                : en:Chapter 09
  163. 01:16:19.116                : en:Chapter 10
  164. 01:18:54.605                : en:Chapter 11
RAW Paste Data
We use cookies for various purposes including analytics. By continuing to use Pastebin, you agree to our use of cookies as described in the Cookies Policy. OK, I Understand
 
Top