Guest User

Untitled

a guest
Jun 17th, 2021
49
Never
Not a member of Pastebin yet? Sign Up, it unlocks many cool features!
  1. Общее
  2. Уникальный идентификатор : 186747613503083029216760019777064911052 (0x8C7E4836F978485075DB4B65A1B9C0CC)
  3. Полное имя : Nims.Island.2008.BluRay.REMUX.1080p.mkv
  4. Формат : Matroska
  5. Версия формата : Version 4
  6. Размер файла : 26,1 Гбайт
  7. Продолжительность : 1 ч. 36 м.
  8. Режим общего битрейта : Переменный
  9. Общий поток : 38,8 Мбит/сек
  10. Название фильма : Nim's Island 2008
  11. Дата кодирования : UTC 2021-06-16 06:31:32
  12. Программа кодирования : mkvmerge v35.0.0 ('All The Love In The World') 64-bit
  13. Библиотека кодирования : libebml v1.3.9 + libmatroska v1.5.2
  14. Обложка : Yes
  15. Attachments : cover.jpg
  16.  
  17. Видео
  18. Идентификатор : 1
  19. Формат : AVC
  20. Формат/Информация : Advanced Video Codec
  21. Профиль формата : High@L4.1
  22. Настройки формата : CABAC / 4 Ref Frames
  23. Параметр CABAC формата : Да
  24. Параметр RefFrames формата : 4 кадра
  25. Идентификатор кодека : V_MPEG4/ISO/AVC
  26. Продолжительность : 1 ч. 36 м.
  27. Вид битрейта : Переменный
  28. Битрейт : 34,3 Мбит/сек
  29. Максимальный битрейт : 37,0 Мбит/сек
  30. Ширина : 1 920 пикселей
  31. Высота : 1 080 пикселей
  32. Соотношение сторон : 16:9
  33. Режим частоты кадров : Постоянный
  34. Частота кадров : 23,976 (24000/1001) кадра/сек
  35. Стандарт вещания : NTSC
  36. Цветовое пространство : YUV
  37. Субдискретизация насыщенности : 4:2:0
  38. Битовая глубина : 8 бит
  39. Тип развёртки : Прогрессивная
  40. Бит/(Пиксели*Кадры) : 0.690
  41. Размер потока : 23,0 Гбайт (88%)
  42. Заголовок : Unknown
  43. Язык : English
  44. Default : Да
  45. Forced : Нет
  46. Цветовой диапазон : Limited
  47. Основные цвета : BT.709
  48. Характеристики трансфера : BT.709
  49. Коэффициенты матрицы : BT.709
  50.  
  51. Аудио #1
  52. Идентификатор : 2
  53. Формат : AC-3
  54. Формат/Информация : Audio Coding 3
  55. Коммерческое название : Dolby Digital
  56. Идентификатор кодека : A_AC3
  57. Продолжительность : 1 ч. 36 м.
  58. Вид битрейта : Постоянный
  59. Битрейт : 384 Кбит/сек
  60. Каналы : 6 каналов
  61. Channel layout : L R C LFE Ls Rs
  62. Частота : 48,0 КГц
  63. Частота кадров : 31,250 кадров/сек (1536 SPF)
  64. Метод сжатия : С потерями
  65. Размер потока : 264 Мбайт (1%)
  66. Заголовок : DUB
  67. Язык : Russian
  68. Service kind : Complete Main
  69. Default : Да
  70. Forced : Нет
  71.  
  72. Аудио #2
  73. Идентификатор : 3
  74. Формат : DTS XLL
  75. Формат/Информация : Digital Theater Systems
  76. Коммерческое название : DTS-HD Master Audio
  77. Идентификатор кодека : A_DTS
  78. Продолжительность : 1 ч. 36 м.
  79. Вид битрейта : Переменный
  80. Битрейт : 4 143 Кбит/сек
  81. Каналы : 6 каналов
  82. Channel layout : C L R Ls Rs LFE
  83. Частота : 48,0 КГц
  84. Частота кадров : 93,750 кадра/сек (512 SPF)
  85. Битовая глубина : 24 бит
  86. Метод сжатия : Без потерь
  87. Размер потока : 2,78 Гбайт (11%)
  88. Заголовок : Original
  89. Язык : English
  90. Default : Нет
  91. Forced : Нет
  92.  
  93. Текст #1
  94. Идентификатор : 4
  95. Формат : UTF-8
  96. Идентификатор кодека : S_TEXT/UTF8
  97. Идентификатор кодека/Информация : UTF-8 Plain Text
  98. Продолжительность : 1 ч. 28 м.
  99. Битрейт : 78 бит/сек
  100. Count of elements : 988
  101. Размер потока : 50,6 Кбайт (0%)
  102. Заголовок : Full
  103. Язык : Russian
  104. Default : Нет
  105. Forced : Нет
  106.  
  107. Текст #2
  108. Идентификатор : 5
  109. Формат : UTF-8
  110. Идентификатор кодека : S_TEXT/UTF8
  111. Идентификатор кодека/Информация : UTF-8 Plain Text
  112. Продолжительность : 1 ч. 28 м.
  113. Битрейт : 54 бит/сек
  114. Count of elements : 1049
  115. Размер потока : 35,4 Кбайт (0%)
  116. Заголовок : SRT
  117. Язык : English
  118. Default : Нет
  119. Forced : Нет
  120.  
  121. Текст #3
  122. Идентификатор : 6
  123. Формат : PGS
  124. Режим смешивания : zlib
  125. Идентификатор кодека : S_HDMV/PGS
  126. Идентификатор кодека/Информация : Picture based subtitle format used on BDs/HD-DVDs
  127. Продолжительность : 1 ч. 31 м.
  128. Битрейт : 59,6 Кбит/сек
  129. Count of elements : 2476
  130. Размер потока : 39,1 Мбайт (0%)
  131. Заголовок : PGS
  132. Язык : English
  133. Default : Нет
  134. Forced : Нет
  135.  
  136. Меню
  137. 00:00:00.000 : en:Chapter 01
  138. 00:06:01.277 : en:Chapter 02
  139. 00:09:13.052 : en:Chapter 03
  140. 00:12:21.782 : en:Chapter 04
  141. 00:15:25.341 : en:Chapter 05
  142. 00:18:06.293 : en:Chapter 06
  143. 00:21:53.895 : en:Chapter 07
  144. 00:26:29.212 : en:Chapter 08
  145. 00:32:47.215 : en:Chapter 09
  146. 00:35:30.962 : en:Chapter 10
  147. 00:39:50.388 : en:Chapter 11
  148. 00:43:12.840 : en:Chapter 12
  149. 00:45:58.005 : en:Chapter 13
  150. 00:48:47.758 : en:Chapter 14
  151. 00:50:54.259 : en:Chapter 15
  152. 00:55:46.968 : en:Chapter 16
  153. 00:59:53.339 : en:Chapter 17
  154. 01:01:15.213 : en:Chapter 18
  155. 01:06:14.845 : en:Chapter 19
  156. 01:12:17.708 : en:Chapter 20
  157. 01:18:17.275 : en:Chapter 21
  158. 01:23:25.834 : en:Chapter 22
  159. 01:26:17.005 : en:Chapter 23
  160. 01:29:50.468 : en:Chapter 24
  161.  
  162.  
RAW Paste Data