SHARE
TWEET

Ophelia WEB-DL 1080p

dirtyharrys Jul 9th, 2019 80 Never
Not a member of Pastebin yet? Sign Up, it unlocks many cool features!
  1. General
  2. Unique ID                   : 86050474327196875736640519582428580402 (0x40BCB7F128C14B2CFA9A3BC5EEB64A32)
  3. Complete name               : E:\V0VCT3BoZWxpYQ.mkv
  4. Format                      : Matroska
  5. Format version              : Version 4
  6. File size                   : 1.56 GiB
  7. Duration                    : 1 h 46 min
  8. Overall bit rate            : 2 096 kb/s
  9. Movie name                  : Ophelia WEB-DL / Ophelia WEB-DL
  10. Encoded date                : UTC 2019-07-09 01:45:44
  11. Writing application         : mkvmerge v30.1.0 ('Forever And More') 32-bit
  12. Writing library             : libebml v1.3.6 + libmatroska v1.4.9
  13. Copyright                   : Movies HDs 2019
  14. ARTIST                      : HarshLearner
  15.  
  16. Video
  17. ID                          : 1
  18. Format                      : AVC
  19. Format/Info                 : Advanced Video Codec
  20. Format profile              : High@L4
  21. Format settings             : CABAC / 4 Ref Frames
  22. Format settings, CABAC      : Yes
  23. Format settings, ReFrames   : 4 frames
  24. Codec ID                    : V_MPEG4/ISO/AVC
  25. Duration                    : 1 h 46 min
  26. Bit rate                    : 1 710 kb/s
  27. Width                       : 1 920 pixels
  28. Height                      : 800 pixels
  29. Display aspect ratio        : 2.40:1
  30. Frame rate mode             : Constant
  31. Frame rate                  : 23.976 (24000/1001) FPS
  32. Color space                 : YUV
  33. Chroma subsampling          : 4:2:0
  34. Bit depth                   : 8 bits
  35. Scan type                   : Progressive
  36. Bits/(Pixel*Frame)          : 0.046
  37. Stream size                 : 1.27 GiB (82%)
  38. Title                       : Ophelia
  39. Writing library             : x264 core 157 r2970 5493be8
  40. Default                     : Yes
  41. Forced                      : No
  42.  
  43. Audio
  44. ID                          : 2
  45. Format                      : AC-3
  46. Format/Info                 : Audio Coding 3
  47. Commercial name             : Dolby Digital
  48. Codec ID                    : A_AC3
  49. Duration                    : 1 h 46 min
  50. Bit rate mode               : Constant
  51. Bit rate                    : 384 kb/s
  52. Channel(s)                  : 6 channels
  53. Channel layout              : L R C LFE Ls Rs
  54. Sampling rate               : 48.0 kHz
  55. Frame rate                  : 31.250 FPS (1536 SPF)
  56. Bit depth                   : 16 bits
  57. Compression mode            : Lossy
  58. Stream size                 : 292 MiB (18%)
  59. Language                    : English
  60. Service kind                : Complete Main
  61. Default                     : Yes
  62. Forced                      : No
  63.  
  64. Text #1
  65. ID                          : 3
  66. Format                      : UTF-8
  67. Codec ID                    : S_TEXT/UTF8
  68. Codec ID/Info               : UTF-8 Plain Text
  69. Duration                    : 1 h 43 min
  70. Bit rate                    : 44 b/s
  71. Count of elements           : 1164
  72. Stream size                 : 33.7 KiB (0%)
  73. Language                    : English
  74. Default                     : No
  75. Forced                      : No
  76.  
  77. Text #2
  78. ID                          : 4
  79. Format                      : UTF-8
  80. Codec ID                    : S_TEXT/UTF8
  81. Codec ID/Info               : UTF-8 Plain Text
  82. Duration                    : 1 h 38 min
  83. Bit rate                    : 43 b/s
  84. Count of elements           : 1011
  85. Stream size                 : 31.5 KiB (0%)
  86. Language                    : Spanish
  87. Default                     : Yes
  88. Forced                      : Yes
  89.  
  90. Menu
  91. 00:00:00.000                : :
  92. 00:12:43.763                : :
  93. 00:23:01.922                : :
  94. 00:34:13.385                : :
  95. 00:47:29.848                : :
  96. 00:58:17.871                : :
  97. 01:09:40.762                : :
  98. 01:22:19.520                : :
  99. 01:31:23.689                : :
  100. 01:40:02.999                : :
RAW Paste Data
We use cookies for various purposes including analytics. By continuing to use Pastebin, you agree to our use of cookies as described in the Cookies Policy. OK, I Understand
 
Top