SHARE
TWEET

Untitled

mft39anton Oct 8th, 2018 126 Never
Not a member of Pastebin yet? Sign Up, it unlocks many cool features!
  1. General
  2. ID                                       : 1 (0x1)
  3. Complete name                            : F:\BTN\Syn.otca.narodov.2013.HDTV.(1080i).BigFANGRoup\Syn.otca.narodov.(01.seriya.).2013.HDTV.(1080i).Shuriman.ts
  4. Format                                   : MPEG-TS
  5. File size                                : 2.99 GiB
  6. Duration                                 : 49 min 44 s
  7. Overall bit rate mode                    : Variable
  8. Overall bit rate                         : 8 607 kb/s
  9.  
  10. Video
  11. ID                                       : 1902 (0x76E)
  12. Menu ID                                  : 1 (0x1)
  13. Format                                   : AVC
  14. Format/Info                              : Advanced Video Codec
  15. Format profile                           : High@L4
  16. Format settings                          : CABAC / 3 Ref Frames
  17. Format settings, CABAC                   : Yes
  18. Format settings, RefFrames               : 3 frames
  19. Codec ID                                 : 27
  20. Duration                                 : 49 min 44 s
  21. Bit rate                                 : 7 956 kb/s
  22. Width                                    : 1 920 pixels
  23. Height                                   : 1 080 pixels
  24. Display aspect ratio                     : 16:9
  25. Frame rate                               : 25.000 FPS
  26. Standard                                 : Component
  27. Color space                              : YUV
  28. Chroma subsampling                       : 4:2:0
  29. Bit depth                                : 8 bits
  30. Scan type                                : Interlaced
  31. Scan type, store method                  : Separated fields
  32. Scan order                               : Top Field First
  33. Bits/(Pixel*Frame)                       : 0.153
  34. Stream size                              : 2.76 GiB (92%)
  35. Color range                              : Limited
  36. Color primaries                          : BT.709
  37. Transfer characteristics                 : BT.709
  38. Matrix coefficients                      : BT.709
  39.  
  40. Audio
  41. ID                                       : 2902 (0xB56)
  42. Menu ID                                  : 1 (0x1)
  43. Format                                   : MPEG Audio
  44. Format version                           : Version 1
  45. Format profile                           : Layer 2
  46. Codec ID                                 : 3
  47. Duration                                 : 49 min 44 s
  48. Bit rate mode                            : Constant
  49. Bit rate                                 : 224 kb/s
  50. Channel(s)                               : 2 channels
  51. Sampling rate                            : 48.0 kHz
  52. Frame rate                               : 41.667 FPS (1152 SPF)
  53. Compression mode                         : Lossy
  54. Stream size                              : 79.7 MiB (3%)
  55. Language                                 : Russian
  56.  
  57. Text
  58. ID                                       : 33 (0x21)-888
  59. Menu ID                                  : 1 (0x1)
  60. Format                                   : Teletext Subtitle
  61. Language                                 : Russian
RAW Paste Data
We use cookies for various purposes including analytics. By continuing to use Pastebin, you agree to our use of cookies as described in the Cookies Policy. OK, I Understand
 
Top