GrabHD

Untitled

Feb 25th, 2020
153
Never
Not a member of Pastebin yet? Sign Up, it unlocks many cool features!
  1. Общее
  2. Уникальный идентификатор : 177302452769544239166862333142537880166 (0x856335D63C29DCA6BD927506093C4266)
  3. Полное имя : Садист (Bully) 2001 WEBRip 1080p.mkv
  4. Формат : Matroska
  5. Версия формата : Version 2
  6. Размер файла : 12,0 Гбайт
  7. Продолжительность : 1 ч. 52 м.
  8. Режим общего битрейта : Переменный
  9. Общий поток : 15,2 Мбит/сек
  10. Дата кодирования : UTC 2020-02-25 07:53:48
  11. Программа кодирования : mkvmerge v4.0.0 ('The Stars were mine') сборка от Jun 6 2010 16:18:42
  12. Библиотека кодирования : libebml v1.0.0 + libmatroska v1.0.0
  13.  
  14. Видео
  15. Идентификатор : 1
  16. Формат : AVC
  17. Формат/Информация : Advanced Video Codec
  18. Профиль формата : High@L4
  19. Параметр CABAC формата : Да
  20. Параметр ReFrames формата : 4 кадра
  21. Идентификатор кодека : V_MPEG4/ISO/AVC
  22. Продолжительность : 1 ч. 52 м.
  23. Вид битрейта : Переменный
  24. Битрейт : 13,6 Мбит/сек
  25. Максимальный битрейт : 15,0 Мбит/сек
  26. Ширина : 1920 пикселей
  27. Высота : 1080 пикселей
  28. Соотношение сторон : 16:9
  29. Режим частоты кадров : Постоянный
  30. Частота кадров : 23,976 (24000/1001) кадра/сек
  31. Цветовое пространство : YUV
  32. Субдискретизация насыщенности : 4:2:0
  33. Битовая глубина : 8 бит
  34. Тип развёртки : Прогрессивная
  35. Бит/(Пиксели*Кадры) : 0.274
  36. Размер потока : 10,7 Гбайт (90%)
  37. Язык : English
  38. Default : Нет
  39. Forced : Нет
  40. Цветовой диапазон : Limited
  41. Основные цвета : BT.709
  42. Характеристики трансфера : BT.709
  43. Коэффициенты матрицы : BT.709
  44.  
  45. Аудио #1
  46. Идентификатор : 2
  47. Формат : AC-3
  48. Формат/Информация : Audio Coding 3
  49. Расширение режима : CM (complete main)
  50. Параметр Endianness формата : Big
  51. Идентификатор кодека : A_AC3
  52. Продолжительность : 1 ч. 52 м.
  53. Вид битрейта : Постоянный
  54. Битрейт : 448 Кбит/сек
  55. Каналы : 6 каналов
  56. Расположение каналов : Front: L C R, Side: L R, LFE
  57. Частота : 48,0 КГц
  58. Частота кадров : 31,250 кадров/сек (1536 spf)
  59. Метод сжатия : С потерями
  60. Размер потока : 361 Мбайт (3%)
  61. Заголовок : MVO R5 «Premier Digital»
  62. Язык : Russian
  63. Default : Нет
  64. Forced : Нет
  65.  
  66. Аудио #2
  67. Идентификатор : 3
  68. Формат : AC-3
  69. Формат/Информация : Audio Coding 3
  70. Расширение режима : CM (complete main)
  71. Параметр Endianness формата : Big
  72. Идентификатор кодека : A_AC3
  73. Продолжительность : 1 ч. 52 м.
  74. Вид битрейта : Постоянный
  75. Битрейт : 192 Кбит/сек
  76. Каналы : 2 канала
  77. Расположение каналов : Front: L R
  78. Частота : 48,0 КГц
  79. Частота кадров : 31,250 кадров/сек (1536 spf)
  80. Метод сжатия : С потерями
  81. Размер потока : 155 Мбайт (1%)
  82. Заголовок : AVO Котов Вячеслав Олегович (mupoxa)
  83. Язык : Russian
  84. Default : Нет
  85. Forced : Нет
  86.  
  87. Аудио #3
  88. Идентификатор : 4
  89. Формат : AC-3
  90. Формат/Информация : Audio Coding 3
  91. Расширение режима : CM (complete main)
  92. Параметр Endianness формата : Big
  93. Идентификатор кодека : A_AC3
  94. Продолжительность : 1 ч. 52 м.
  95. Вид битрейта : Постоянный
  96. Битрейт : 640 Кбит/сек
  97. Каналы : 6 каналов
  98. Расположение каналов : Front: L C R, Side: L R, LFE
  99. Частота : 48,0 КГц
  100. Частота кадров : 31,250 кадров/сек (1536 spf)
  101. Метод сжатия : С потерями
  102. Размер потока : 515 Мбайт (4%)
  103. Язык : English
  104. Default : Нет
  105. Forced : Нет
  106.  
  107. Текст #1
  108. Идентификатор : 5
  109. Формат : UTF-8
  110. Идентификатор кодека : S_TEXT/UTF8
  111. Идентификатор кодека/Информация : UTF-8 Plain Text
  112. Язык : Russian
  113. Default : Нет
  114. Forced : Нет
  115.  
  116. Текст #2
  117. Идентификатор : 6
  118. Формат : UTF-8
  119. Идентификатор кодека : S_TEXT/UTF8
  120. Идентификатор кодека/Информация : UTF-8 Plain Text
  121. Язык : English
  122. Default : Нет
  123. Forced : Нет
RAW Paste Data