iMN0

Penguin.Bloom.2021.1080p.BluRay.REMUX.DTS-HD.MA.5.1-SNAHP.mkv

Jul 10th, 2021
60
Never
Not a member of Pastebin yet? Sign Up, it unlocks many cool features!
  1. General
  2. Unique ID : 3647241535828863298486181882532397599 (0x2BE6EE426F7C3BB4D737BDCD05B021F)
  3. Complete name : Penguin.Bloom.2021.1080p.BluRay.REMUX.DTS-HD.MA.5.1-SNAHP.mkv
  4. Format : Matroska
  5. Format version : Version 4
  6. File size : 18.9 GiB
  7. Duration : 1 h 35 min
  8. Overall bit rate mode : Variable
  9. Overall bit rate : 28.4 Mb/s
  10. Movie name : Penguin.Bloom.2020-NoGroup
  11. Encoded date : UTC 2021-07-10 00:18:05
  12. Writing application : mkvmerge v49.0.0 ('Sick Of Losing Soulmates') 64-bit
  13. Writing library : libebml v1.4.0 + libmatroska v1.6.1
  14. Cover : Yes
  15. Attachments : cover.jpg
  16.  
  17. Video
  18. ID : 1
  19. ID in the original source medium : 4113 (0x1011)
  20. Format : AVC
  21. Format/Info : Advanced Video Codec
  22. Format profile : High@L4.1
  23. Format settings : CABAC / 4 Ref Frames
  24. Format settings, CABAC : Yes
  25. Format settings, Reference frames : 4 frames
  26. Codec ID : V_MPEG4/ISO/AVC
  27. Duration : 1 h 35 min
  28. Bit rate mode : Variable
  29. Bit rate : 25.2 Mb/s
  30. Maximum bit rate : 30.0 Mb/s
  31. Width : 1 920 pixels
  32. Height : 1 080 pixels
  33. Display aspect ratio : 16:9
  34. Frame rate mode : Constant
  35. Frame rate : 24.000 FPS
  36. Color space : YUV
  37. Chroma subsampling : 4:2:0
  38. Bit depth : 8 bits
  39. Scan type : Progressive
  40. Bits/(Pixel*Frame) : 0.506
  41. Stream size : 16.7 GiB (89%)
  42. Default : Yes
  43. Forced : No
  44. Color range : Limited
  45. Color primaries : BT.709
  46. Transfer characteristics : BT.709
  47. Matrix coefficients : BT.709
  48. Original source medium : Blu-ray
  49.  
  50. Audio
  51. ID : 2
  52. ID in the original source medium : 4354 (0x1102)
  53. Format : DTS XLL
  54. Format/Info : Digital Theater Systems
  55. Commercial name : DTS-HD Master Audio
  56. Codec ID : A_DTS
  57. Duration : 1 h 35 min
  58. Bit rate mode : Variable
  59. Bit rate : 3 234 kb/s
  60. Channel(s) : 6 channels
  61. Channel layout : C L R Ls Rs LFE
  62. Sampling rate : 48.0 kHz
  63. Frame rate : 93.750 FPS (512 SPF)
  64. Bit depth : 24 bits
  65. Compression mode : Lossless
  66. Stream size : 2.15 GiB (11%)
  67. Language : English
  68. Default : Yes
  69. Forced : No
  70. Original source medium : Blu-ray
  71.  
  72. Text #1
  73. ID : 3
  74. ID in the original source medium : 4608 (0x1200)
  75. Format : PGS
  76. Muxing mode : zlib
  77. Codec ID : S_HDMV/PGS
  78. Codec ID/Info : Picture based subtitle format used on BDs/HD-DVDs
  79. Duration : 1 h 26 min
  80. Bit rate : 27.2 kb/s
  81. Count of elements : 1798
  82. Stream size : 16.9 MiB (0%)
  83. Language : Spanish
  84. Default : No
  85. Forced : No
  86. Original source medium : Blu-ray
  87.  
  88. Text #2
  89. ID : 4
  90. Format : UTF-8
  91. Codec ID : S_TEXT/UTF8
  92. Codec ID/Info : UTF-8 Plain Text
  93. Duration : 1 h 33 min
  94. Bit rate : 77 b/s
  95. Count of elements : 1476
  96. Stream size : 53.2 KiB (0%)
  97. Language : English
  98. Default : No
  99. Forced : No
  100.  
  101. Text #3
  102. ID : 5
  103. Format : UTF-8
  104. Codec ID : S_TEXT/UTF8
  105. Codec ID/Info : UTF-8 Plain Text
  106. Duration : 1 h 27 min
  107. Bit rate : 76 b/s
  108. Count of elements : 995
  109. Stream size : 49.3 KiB (0%)
  110. Language : Arabic
  111. Default : No
  112. Forced : No
  113.  
  114. Text #4
  115. ID : 6
  116. Format : UTF-8
  117. Codec ID : S_TEXT/UTF8
  118. Codec ID/Info : UTF-8 Plain Text
  119. Duration : 1 h 33 min
  120. Bit rate : 38 b/s
  121. Count of elements : 995
  122. Stream size : 26.6 KiB (0%)
  123. Language : Chinese
  124. Default : No
  125. Forced : No
  126.  
  127. Text #5
  128. ID : 7
  129. Format : UTF-8
  130. Codec ID : S_TEXT/UTF8
  131. Codec ID/Info : UTF-8 Plain Text
  132. Duration : 1 h 33 min
  133. Bit rate : 37 b/s
  134. Count of elements : 996
  135. Stream size : 25.6 KiB (0%)
  136. Language : Chinese
  137. Default : No
  138. Forced : No
  139.  
  140. Text #6
  141. ID : 8
  142. Format : UTF-8
  143. Codec ID : S_TEXT/UTF8
  144. Codec ID/Info : UTF-8 Plain Text
  145. Duration : 1 h 33 min
  146. Bit rate : 33 b/s
  147. Count of elements : 882
  148. Stream size : 22.7 KiB (0%)
  149. Language : Dutch
  150. Default : No
  151. Forced : No
  152.  
  153. Text #7
  154. ID : 9
  155. Format : UTF-8
  156. Codec ID : S_TEXT/UTF8
  157. Codec ID/Info : UTF-8 Plain Text
  158. Duration : 1 h 33 min
  159. Bit rate : 31 b/s
  160. Count of elements : 910
  161. Stream size : 21.9 KiB (0%)
  162. Language : French
  163. Default : No
  164. Forced : No
  165.  
  166. Text #8
  167. ID : 10
  168. Format : UTF-8
  169. Codec ID : S_TEXT/UTF8
  170. Codec ID/Info : UTF-8 Plain Text
  171. Duration : 1 h 33 min
  172. Bit rate : 29 b/s
  173. Count of elements : 839
  174. Stream size : 20.4 KiB (0%)
  175. Language : Japanese
  176. Default : No
  177. Forced : No
  178.  
  179. Text #9
  180. ID : 11
  181. Format : UTF-8
  182. Codec ID : S_TEXT/UTF8
  183. Codec ID/Info : UTF-8 Plain Text
  184. Duration : 1 h 33 min
  185. Bit rate : 42 b/s
  186. Count of elements : 996
  187. Stream size : 29.2 KiB (0%)
  188. Language : Korean
  189. Default : No
  190. Forced : No
  191.  
  192. Text #10
  193. ID : 12
  194. Format : UTF-8
  195. Codec ID : S_TEXT/UTF8
  196. Codec ID/Info : UTF-8 Plain Text
  197. Duration : 1 h 33 min
  198. Bit rate : 34 b/s
  199. Count of elements : 973
  200. Stream size : 23.5 KiB (0%)
  201. Language : Malay
  202. Default : No
  203. Forced : No
  204.  
  205. Text #11
  206. ID : 13
  207. Format : UTF-8
  208. Codec ID : S_TEXT/UTF8
  209. Codec ID/Info : UTF-8 Plain Text
  210. Duration : 1 h 27 min
  211. Bit rate : 38 b/s
  212. Count of elements : 988
  213. Stream size : 24.7 KiB (0%)
  214. Language : Portuguese
  215. Default : No
  216. Forced : No
  217.  
  218. Text #12
  219. ID : 14
  220. Format : UTF-8
  221. Codec ID : S_TEXT/UTF8
  222. Codec ID/Info : UTF-8 Plain Text
  223. Duration : 1 h 33 min
  224. Bit rate : 92 b/s
  225. Count of elements : 1003
  226. Stream size : 63.6 KiB (0%)
  227. Language : Thai
  228. Default : No
  229. Forced : No
  230.  
  231. Text #13
  232. ID : 15
  233. Format : UTF-8
  234. Codec ID : S_TEXT/UTF8
  235. Codec ID/Info : UTF-8 Plain Text
  236. Duration : 1 h 33 min
  237. Bit rate : 55 b/s
  238. Count of elements : 999
  239. Stream size : 38.1 KiB (0%)
  240. Language : Vietnamese
  241. Default : No
  242. Forced : No
  243.  
  244. Menu
  245. 00:00:00.000 : en:Chapter 01
  246. 00:04:39.833 : en:Chapter 02
  247. 00:09:15.041 : en:Chapter 03
  248. 00:16:24.708 : en:Chapter 04
  249. 00:22:35.500 : en:Chapter 05
  250. 00:33:59.375 : en:Chapter 06
  251. 00:42:14.541 : en:Chapter 07
  252. 00:48:53.458 : en:Chapter 08
  253. 00:56:34.666 : en:Chapter 09
  254. 01:07:38.833 : en:Chapter 10
  255. 01:19:28.041 : en:Chapter 11
  256. 01:27:26.541 : en:Chapter 12
RAW Paste Data