Interfilm

Untitled

Jun 12th, 2014
283
Never
Not a member of Pastebin yet? Sign Up, it unlocks many cool features!
  1. General
  2. A.Lady.In.Paris.2013.Blu.Ray.1080p.CINEMANIA.mkv
  3. Format : Matroska
  4. Format version : Version 4 / Version 2
  5. File size : 8.00 GiB
  6. Duration : 1h 34mn
  7. Overall bit rate : 12.1 Mbps
  8. Movie name : Release Group CINEMANIA
  9. Encoded date : UTC 2014-06-12 09:10:29
  10. Writing application : mkvmerge v7.0.0 ('Where We Going') 64bit built on Jun 9 2014 15:16:27
  11. Writing library : libebml v1.3.0 + libmatroska v1.4.1
  12.  
  13. Video
  14. ID : 1
  15. Format : AVC
  16. Format/Info : Advanced Video Codec
  17. Format profile : High@L4.1
  18. Format settings, CABAC : Yes
  19. Format settings, ReFrames : 4 frames
  20. Codec ID : V_MPEG4/ISO/AVC
  21. Duration : 1h 34mn
  22. Bit rate : 9 947 Kbps
  23. Nominal bit rate : 10.5 Mbps
  24. Width : 1 920 pixels
  25. Height : 1 036 pixels
  26. Display aspect ratio : 1.85:1
  27. Frame rate mode : Constant
  28. Frame rate : 24.000 fps
  29. Color space : YUV
  30. Chroma subsampling : 4:2:0
  31. Bit depth : 8 bits
  32. Scan type : Progressive
  33. Bits/(Pixel*Frame) : 0.208
  34. Stream size : 6.59 GiB (82%)
  35. Title : Release Group CINEMANIA
  36. Writing library : x264 core 130 r2273 b3065e6
  37. Encoding settings : cabac=1 / ref=4 / deblock=1:-3:-3 / analyse=0x3:0x113 / me=umh / subme=7 / psy=1 / psy_rd=1.00:0.00 / mixed_ref=1 / me_range=16 / chroma_me=1 / trellis=1 / 8x8dct=1 / cqm=0 / deadzone=21,11 / fast_pskip=1 / chroma_qp_offset=-2 / threads=16 / lookahead_threads=2 / sliced_threads=0 / nr=0 / decimate=1 / interlaced=0 / bluray_compat=0 / constrained_intra=0 / bframes=3 / b_pyramid=2 / b_adapt=1 / b_bias=0 / direct=3 / weightb=1 / open_gop=0 / weightp=2 / keyint=240 / keyint_min=24 / scenecut=40 / intra_refresh=0 / rc_lookahead=50 / rc=abr / mbtree=1 / bitrate=10486 / ratetol=1.0 / qcomp=0.60 / qpmin=0 / qpmax=69 / qpstep=4 / ip_ratio=1.40 / aq=1:1.00
  38. Language : English
  39. Default : Yes
  40. Forced : No
  41.  
  42. Audio #1
  43. ID : 2
  44. Format : AC-3
  45. Format/Info : Audio Coding 3
  46. Mode extension : CM (complete main)
  47. Format settings, Endianness : Big
  48. Codec ID : A_AC3
  49. Duration : 1h 34mn
  50. Bit rate mode : Constant
  51. Bit rate : 384 Kbps
  52. Channel(s) : 6 channels
  53. Channel positions : Front: L C R, Side: L R, LFE
  54. Sampling rate : 48.0 KHz
  55. Bit depth : 16 bits
  56. Compression mode : Lossy
  57. Stream size : 261 MiB (3%)
  58. Title : 1 канал
  59. Language : Russian
  60. Default : Yes
  61. Forced : Yes
  62.  
  63. Audio #2
  64. ID : 3
  65. Format : DTS
  66. Format/Info : Digital Theater Systems
  67. Mode : 16
  68. Format settings, Endianness : Big
  69. Codec ID : A_DTS
  70. Duration : 1h 34mn
  71. Bit rate mode : Constant
  72. Bit rate : 1 509 Kbps
  73. Channel(s) : 6 channels
  74. Channel positions : Front: L C R, Side: L R, LFE
  75. Sampling rate : 48.0 KHz
  76. Bit depth : 24 bits
  77. Compression mode : Lossy
  78. Stream size : 1 024 MiB (12%)
  79. Language : French
  80. Default : No
  81. Forced : No
  82.  
  83. Text
  84. ID : 4
  85. Format : UTF-8
  86. Codec ID : S_TEXT/UTF8
  87. Codec ID/Info : UTF-8 Plain Text
  88. Language : English
  89. Default : No
  90. Forced : No
  91.  
  92. Menu
  93. 00:00:00.000 : en:00:00:00.000
  94. 00:00:18.000 : en:00:00:18.000
  95. 00:10:54.667 : en:00:10:54.667
  96. 00:22:40.833 : en:00:22:40.833
  97. 00:31:38.833 : en:00:31:38.833
  98. 00:42:00.333 : en:00:42:00.333
  99. 00:46:56.708 : en:00:46:56.708
  100. 01:06:28.917 : en:01:06:28.917
  101. 01:16:06.708 : en:01:16:06.708
RAW Paste Data