Advertisement
johnowenemmet

Пространство / Экспансия / The Expanse (2015)

Feb 10th, 2024
49
0
Never
Not a member of Pastebin yet? Sign Up, it unlocks many cool features!
text 10.36 KB | None | 0 0
  1. x265 [info]: frame I: 264, Avg QP:17.59 kb/s: 14095.99
  2. x265 [info]: frame P: 11710, Avg QP:18.97 kb/s: 8606.13
  3. x265 [info]: frame B: 49993, Avg QP:21.27 kb/s: 2673.25
  4. x265 [info]: Weighted P-Frames: Y:4.2% UV:3.3%
  5. x265 [info]: Weighted B-Frames: Y:4.8% UV:3.4%
  6. x265 [info]: consecutive B-frames: 1.5% 2.0% 10.9% 27.7% 14.4% 27.5% 6.0% 5.4% 1.9% 1.4% 0.7% 0.3% 0.2% 0.2%
  7. x265 [info]: encoded 61967 frames in 47659.71s (1.30 fps), 3843.06 kb/s, Avg QP:20.82
  8.  
  9. Общее
  10. Уникальный идентификатор : 245886395566707803059351892725070820268 (0xB8FBFF49699D6DD1CD5F3DEBE3CFF3AC)
  11. Полное имя : \\.\The Expanse\The.Expanse.S01.BDRip-HEVC.1080p\The.Expanse.S01E06.Rock.Bottom.mkv
  12. Формат : Matroska
  13. Версия формата : Version 4
  14. Размер файла : 1,74 Гбайт
  15. Продолжительность : 43 м. 4 с.
  16. Общий поток : 5 768 Кбит/сек
  17. Частота кадров : 23,976 кадра/сек
  18. Название фильма : The.Expanse.S01E06.Rock.Bottom / На дне
  19. Трек/Положение : 1
  20. Кодирование произвёл : OldGamer
  21. Тип содержимого : TV Show
  22. Описание : Андерсон Доус угрожает Миллеру. Детективу грозит смертельная опасность. Конфликт между Марсом и Поясом Астероидов усугубляется. Фред Джонсон, глава станции «Тихо» предлагает экипажу «Росинанта» сотрудничество.
  23. Дата выпуска : 2016-01-12
  24. Дата записи : 2016-01-12
  25. Программа кодирования : mkvmerge v82.0 ('I'm The President') 64-bit
  26. Библиотека кодирования : libebml v1.4.5 + libmatroska v1.7.1 / xvid5psp
  27. Обложка : Yes
  28. Attachments : cover.jpg
  29. ACTOR : Steven Strait, Dominique Tipper, Cas Anvar, Wes Chatham, Shohreh Aghdashloo, Thomas Jane, Florence Faivre, Shawn Doyle, Lola Glaudini, Greg Bryk, Yatharth Bhatt, Tig Fong, Alex Karzis, Caleb Olivieri, Phillip Samuel, Felicia Simone, Rossif Sutherland...
  30. ARTIST : Steven Strait, Dominique Tipper, Cas Anvar, Wes Chatham, Shohreh Aghdashloo, Thomas Jane, Florence Faivre, Shawn Doyle, Lola Glaudini, Greg Bryk, Yatharth Bhatt, Tig Fong, Alex Karzis, Caleb Olivieri, Phillip Samuel, Felicia Simone, Rossif Sutherland...
  31. DIRECTOR : Rob Lieberman
  32. EPISODE.PART_NUM : 6
  33. GENRE : драма, детектив, НФ и Фэнтези
  34. LAW_RATING : TV-14
  35. PRODUCER : Daniel Abraham, Ty Franck, Dan Nowak
  36. RATING : TV-14
  37. SCREENPLAY_BY : Hawk Ostby, Mark Fergus
  38. SEASON.PART_NUM : 1
  39. SUMMARY : Андерсон Доус угрожает Миллеру. Детективу грозит смертельная опасность. Конфликт между Марсом и Поясом Астероидов усугубляется. Фред Джонсон, глава станции «Тихо» предлагает экипажу «Росинанта» сотрудничество.
  40. SYNOPSIS : Андерсон Доус угрожает Миллеру. Детективу грозит смертельная опасность. Конфликт между Марсом и Поясом Астероидов усугубляется. Фред Джонсон, глава станции «Тихо» предлагает экипажу «Росинанта» сотрудничество. Крисьен Авасарала просит старого знакомого оказать ей услугу и раздобыть сведения об одной отдаленной станции Пояса. «Росинант» проходит модификацию. Холден, Наоми, Алекс и Эймос получают секретное задание.
  41. WRITTEN_BY : Hawk Ostby, Mark Fergus
  42.  
  43. Видео
  44. Идентификатор : 1
  45. Формат : HEVC
  46. Формат/Информация : High Efficiency Video Coding
  47. Профиль формата : Main 10@L4.1@High
  48. Идентификатор кодека : V_MPEGH/ISO/HEVC
  49. Продолжительность : 43 м. 4 с.
  50. Битрейт : 3 844 Кбит/сек
  51. Ширина : 1 920 пикселей
  52. Высота : 1 080 пикселей
  53. Соотношение сторон : 16:9
  54. Режим частоты кадров : Постоянный
  55. Частота кадров : 23,976 (24000/1001) кадра/сек
  56. Цветовое пространство : YUV
  57. Субдискретизация насыщенности : 4:2:0
  58. Битовая глубина : 10 бит
  59. Бит/(Пиксели*Кадры) : 0.077
  60. Размер потока : 1,16 Гбайт (67%)
  61. Заголовок : The Expanse S01E06 / Rip by OldGamer
  62. Библиотека кодирования : x265 3.2.1+3-b4b2ecac21f6:[Windows][MSVC 1924][64 bit] 10bit
  63. Настройки программы : cpuid=1111039 / frame-threads=4 / numa-pools=16 / wpp / no-pmode / no-pme / no-psnr / no-ssim / log-level=2 / input-csp=1 / input-res=1920x1080 / interlace=0 / total-frames=61967 / level-idc=41 / high-tier=1 / uhd-bd=0 / ref=5 / no-allow-non-conformance / no-repeat-headers / annexb / no-aud / no-hrd / info / hash=0 / no-temporal-layers / open-gop / min-keyint=23 / keyint=240 / gop-lookahead=0 / bframes=13 / b-adapt=2 / b-pyramid / bframe-bias=0 / rc-lookahead=80 / lookahead-slices=0 / scenecut=40 / radl=0 / no-splice / no-intra-refresh / ctu=64 / min-cu-size=8 / rect / amp / max-tu-size=32 / tu-inter-depth=4 / tu-intra-depth=4 / limit-tu=1 / rdoq-level=2 / dynamic-rd=0.00 / no-ssim-rd / signhide / no-tskip / nr-intra=0 / nr-inter=0 / no-constrained-intra / no-strong-intra-smoothing / max-merge=5 / limit-refs=3 / no-limit-modes / me=3 / subme=7 / merange=57 / temporal-mvp / no-hme / weightp / weightb / no-analyze-src-pics / deblock=-3:-3 / no-sao / no-sao-non-deblock / rd=6 / selective-sao=0 / no-early-skip / rskip / no-fast-intra / no-tskip-fast / no-cu-lossless / b-intra / no-splitrd-skip / rdpenalty=0 / psy-rd=2.00 / psy-rdoq=1.00 / no-rd-refine / no-lossless / cbqpoffs=0 / crqpoffs=0 / rc=crf / crf=20.5 / qcomp=0.60 / qpstep=4 / stats-write=0 / stats-read=0 / vbv-maxrate=50000 / vbv-bufsize=50000 / vbv-init=0.9 / crf-max=0.0 / crf-min=0.0 / ipratio=1.40 / pbratio=1.30 / aq-mode=4 / aq-strength=0.80 / no-cutree / zone-count=0 / no-strict-cbr / qg-size=32 / no-rc-grain / qpmax=69 / qpmin=0 / no-const-vbv / sar=1 / overscan=0 / videoformat=5 / range=0 / colorprim=2 / transfer=2 / colormatrix=2 / chromaloc=0 / display-window=0 / cll=0,0 / min-luma=0 / max-luma=1023 / log2-max-poc-lsb=8 / vui-timing-info / vui-hrd-info / slices=1 / no-opt-qp-pps / no-opt-ref-list-length-pps / no-multi-pass-opt-rps / scenecut-bias=0.00 / no-opt-cu-delta-qp / no-aq-motion / no-hdr / no-hdr-opt / no-dhdr10-opt / no-idr-recovery-sei / analysis-reuse-level=5 / scale-factor=0 / refine-intra=0 / refine-inter=0 / refine-mv=1 / refine-ctu-distortion=0 / no-limit-sao / ctu-info=0 / no-lowpass-dct / refine-analysis-type=0 / copy-pic=1 / max-ausize-factor=1.0 / no-dynamic-refine / no-single-sei / no-hevc-aq / no-svt / no-field / qp-adaptation-range=1.00
  64. Язык : English
  65. Default : Да
  66. Forced : Нет
  67.  
  68. Аудио #1
  69. Идентификатор : 2
  70. Формат : AC-3
  71. Формат/Информация : Audio Coding 3
  72. Коммерческое название : Dolby Digital
  73. Идентификатор кодека : A_AC3
  74. Продолжительность : 43 м. 4 с.
  75. Вид битрейта : Постоянный
  76. Битрейт : 640 Кбит/сек
  77. Каналы : 6 каналов
  78. Channel layout : L R C LFE Ls Rs
  79. Частота : 48,0 КГц
  80. Частота кадров : 31,250 кадров/сек (1536 SPF)
  81. Метод сжатия : С потерями
  82. Размер потока : 197 Мбайт (11%)
  83. Заголовок : MVO (LostFilm)
  84. Язык : Russian
  85. Service kind : Complete Main
  86. Default : Да
  87. Forced : Нет
  88.  
  89. Аудио #2
  90. Идентификатор : 3
  91. Формат : AC-3
  92. Формат/Информация : Audio Coding 3
  93. Коммерческое название : Dolby Digital
  94. Идентификатор кодека : A_AC3
  95. Продолжительность : 43 м. 4 с.
  96. Вид битрейта : Постоянный
  97. Битрейт : 640 Кбит/сек
  98. Каналы : 6 каналов
  99. Channel layout : L R C LFE Ls Rs
  100. Частота : 48,0 КГц
  101. Частота кадров : 31,250 кадров/сек (1536 SPF)
  102. Метод сжатия : С потерями
  103. Размер потока : 197 Мбайт (11%)
  104. Заголовок : MVO (AlexFilm)
  105. Язык : Russian
  106. Service kind : Complete Main
  107. Default : Нет
  108. Forced : Нет
  109.  
  110. Аудио #3
  111. Идентификатор : 4
  112. Формат : AC-3
  113. Формат/Информация : Audio Coding 3
  114. Коммерческое название : Dolby Digital
  115. Идентификатор кодека : A_AC3
  116. Продолжительность : 43 м. 4 с.
  117. Вид битрейта : Постоянный
  118. Битрейт : 640 Кбит/сек
  119. Каналы : 6 каналов
  120. Channel layout : L R C LFE Ls Rs
  121. Частота : 48,0 КГц
  122. Частота кадров : 31,250 кадров/сек (1536 SPF)
  123. Метод сжатия : С потерями
  124. Размер потока : 197 Мбайт (11%)
  125. Заголовок : Original
  126. Язык : English
  127. Service kind : Complete Main
  128. Default : Нет
  129. Forced : Нет
  130.  
  131. Текст #1
  132. Идентификатор : 5
  133. Формат : UTF-8
  134. Идентификатор кодека : S_TEXT/UTF8
  135. Идентификатор кодека/Информация : UTF-8 Plain Text
  136. Продолжительность : 42 м. 45 с.
  137. Битрейт : 107 бит/сек
  138. Частота кадров : 0,235 кадр/сек
  139. Count of elements : 604
  140. Размер потока : 33,6 Кбайт (0%)
  141. Язык : Russian
  142. Default : Нет
  143. Forced : Нет
  144.  
  145. Текст #2
  146. Идентификатор : 6
  147. Формат : UTF-8
  148. Идентификатор кодека : S_TEXT/UTF8
  149. Идентификатор кодека/Информация : UTF-8 Plain Text
  150. Продолжительность : 42 м. 6 с.
  151. Битрейт : 69 бит/сек
  152. Частота кадров : 0,271 кадр/сек
  153. Count of elements : 685
  154. Размер потока : 21,4 Кбайт (0%)
  155. Язык : English
  156. Default : Нет
  157. Forced : Нет
  158.  
  159. Меню
  160. 00:00:00.000 : en:Chapter 1
  161. 00:06:36.688 : en:Chapter 2
  162. 00:12:23.868 : en:Chapter 3
  163. 00:30:17.733 : en:Chapter 4
Advertisement
Add Comment
Please, Sign In to add comment
Advertisement