Secasa

Untitled

Jun 30th, 2015
31
Never
Not a member of Pastebin yet? Sign Up, it unlocks many cool features!
  1. Format : Matroska
  2. Format version : Version 2
  3. File size : 4.54 GiB
  4. Duration : 1h 56mn
  5. Overall bit rate : 5 582 Kbps
  6. Encoded date : UTC 2015-06-29 14:08:33
  7. Writing application : mkvmerge v5.3.0 ('I could have danced') built on Feb 9 2012 10:38:07
  8. Writing library : libebml v1.2.3 + libmatroska v1.3.0
  9.  
  10. Video
  11. ID : 1
  12. Format : AVC
  13. Format/Info : Advanced Video Codec
  14. Format profile : High@L4
  15. Format settings, CABAC : Yes
  16. Format settings, ReFrames : 4 frames
  17. Codec ID : V_MPEG4/ISO/AVC
  18. Duration : 1h 56mn
  19. Bit rate : 4 750 Kbps
  20. Width : 1 920 pixels
  21. Height : 1 080 pixels
  22. Display aspect ratio : 16:9
  23. Frame rate mode : Constant
  24. Frame rate : 23.976 fps
  25. Color space : YUV
  26. Chroma subsampling : 4:2:0
  27. Bit depth : 8 bits
  28. Scan type : Progressive
  29. Bits/(Pixel*Frame) : 0.096
  30. Stream size : 3.78 GiB (83%)
  31. Writing library : x264 core 146 r2538 121396c
  32. Encoding settings : cabac=1 / ref=3 / deblock=1:0:0 / analyse=0x3:0x113 / me=hex / subme=7 / psy=1 / psy_rd=1.00:0.00 / mixed_ref=1 / me_range=16 / chroma_me=1 / trellis=1 / 8x8dct=1 / cqm=0 / deadzone=21,11 / fast_pskip=1 / chroma_qp_offset=-2 / threads=12 / lookahead_threads=2 / sliced_threads=0 / nr=0 / decimate=1 / interlaced=0 / bluray_compat=0 / constrained_intra=0 / bframes=3 / b_pyramid=2 / b_adapt=1 / b_bias=0 / direct=1 / weightb=1 / open_gop=0 / weightp=2 / keyint=240 / keyint_min=23 / scenecut=40 / intra_refresh=0 / rc_lookahead=40 / rc=2pass / mbtree=1 / bitrate=4750 / ratetol=1.0 / qcomp=0.60 / qpmin=0 / qpmax=69 / qpstep=4 / cplxblur=20.0 / qblur=0.5 / ip_ratio=1.40 / aq=1:1.00
  33. Language : Spanish
  34. Default : Yes
  35. Forced : No
  36.  
  37. Audio #1
  38. ID : 2
  39. Format : AC-3
  40. Format/Info : Audio Coding 3
  41. Mode extension : CM (complete main)
  42. Format settings, Endianness : Big
  43. Codec ID : A_AC3
  44. Duration : 1h 56mn
  45. Bit rate mode : Constant
  46. Bit rate : 384 Kbps
  47. Channel(s) : 2 channels
  48. Channel positions : Front: L R
  49. Sampling rate : 48.0 KHz
  50. Compression mode : Lossy
  51. Stream size : 320 MiB (7%)
  52. Language : Spanish
  53. Default : Yes
  54. Forced : No
  55.  
  56. Audio #2
  57. ID : 3
  58. Format : AC-3
  59. Format/Info : Audio Coding 3
  60. Mode extension : CM (complete main)
  61. Format settings, Endianness : Big
  62. Codec ID : A_AC3
  63. Duration : 1h 56mn
  64. Bit rate mode : Constant
  65. Bit rate : 448 Kbps
  66. Channel(s) : 6 channels
  67. Channel positions : Front: L C R, Side: L R, LFE
  68. Sampling rate : 48.0 KHz
  69. Compression mode : Lossy
  70. Stream size : 373 MiB (8%)
  71. Language : English
  72. Default : No
  73. Forced : No
  74.  
  75. Text #1
  76. ID : 4
  77. Format : UTF-8
  78. Codec ID : S_TEXT/UTF8
  79. Codec ID/Info : UTF-8 Plain Text
  80. Language : Spanish
  81. Default : Yes
  82. Forced : No
  83.  
  84. Text #2
  85. ID : 5
  86. Format : UTF-8
  87. Codec ID : S_TEXT/UTF8
  88. Codec ID/Info : UTF-8 Plain Text
  89. Language : Spanish
  90. Default : No
  91. Forced : No
  92.  
  93. Text #3
  94. ID : 6
  95. Format : UTF-8
  96. Codec ID : S_TEXT/UTF8
  97. Codec ID/Info : UTF-8 Plain Text
  98. Language : English
  99. Default : No
  100. Forced : No
RAW Paste Data