DeviilHD

Little Evil: Pequeño Demonio (2017) HD 720p Latino - Ingles

Sep 1st, 2017
120
Never
Not a member of Pastebin yet? Sign Up, it unlocks many cool features!
  1. General
  2. Unique ID : 220886541291765114821395698417476957877 (0xA62D334EA209E898A53BD39D47D9F6B5)
  3. Complete name : Little Evil (2017) 720p Latino Ingles.mkv
  4. Format : Matroska
  5. Format version : Version 4 / Version 2
  6. File size : 1.33 GiB
  7. Duration : 1 h 34 min
  8. Overall bit rate : 2 013 kb/s
  9. Movie name : Little Evil (2017) 720p Latino Ingles
  10. Encoded date : UTC 2017-09-02 01:36:34
  11. Writing application : mkvmerge v9.5.0 ('Quiet Fire') 64bit
  12. Writing library : libebml v1.3.4 + libmatroska v1.4.5
  13.  
  14. Video
  15. ID : 1
  16. Format : AVC
  17. Format/Info : Advanced Video Codec
  18. Format profile : High@L4
  19. Format settings, CABAC : No
  20. Format settings, RefFrames : 4 frames
  21. Codec ID : V_MPEG4/ISO/AVC
  22. Duration : 1 h 34 min
  23. Bit rate : 1 500 kb/s
  24. Width : 1 280 pixels
  25. Height : 534 pixels
  26. Display aspect ratio : 2.40:1
  27. Frame rate mode : Constant
  28. Frame rate : 23.976 FPS
  29. Color space : YUV
  30. Chroma subsampling : 4:2:0
  31. Bit depth : 8 bits
  32. Scan type : Progressive
  33. Bits/(Pixel*Frame) : 0.092
  34. Stream size : 1 016 MiB (74%)
  35. Writing library : x264 core 148 r2708 86b7198
  36. Encoding settings : cabac=0 / ref=2 / deblock=0:-1:-1 / analyse=0x3:0x113 / me=hex / subme=6 / psy=1 / psy_rd=1.00:0.15 / mixed_ref=1 / me_range=16 / chroma_me=1 / trellis=1 / 8x8dct=1 / cqm=0 / deadzone=21,11 / fast_pskip=1 / chroma_qp_offset=-3 / threads=17 / lookahead_threads=2 / sliced_threads=0 / nr=0 / decimate=1 / interlaced=0 / bluray_compat=0 / constrained_intra=0 / bframes=3 / b_pyramid=2 / b_adapt=1 / b_bias=0 / direct=1 / weightb=0 / open_gop=0 / weightp=0 / keyint=240 / keyint_min=24 / scenecut=40 / intra_refresh=0 / rc_lookahead=30 / rc=2pass / mbtree=1 / bitrate=1500 / ratetol=1.0 / qcomp=0.60 / qpmin=0 / qpmax=69 / qpstep=4 / cplxblur=20.0 / qblur=0.5 / vbv_maxrate=25000 / vbv_bufsize=31250 / nal_hrd=none / filler=0 / ip_ratio=1.40 / aq=1:1.00
  37. Default : Yes
  38. Forced : No
  39. Color range : Limited
  40. Color primaries : BT.709
  41. Transfer characteristics : BT.709
  42. Matrix coefficients : BT.709
  43.  
  44. Audio #1
  45. ID : 2
  46. Format : E-AC-3
  47. Format/Info : Enhanced Audio Coding 3
  48. Format settings, Endianness : Big
  49. Codec ID : A_EAC3
  50. Duration : 1 h 34 min
  51. Bit rate mode : Constant
  52. Bit rate : 192 kb/s
  53. Channel(s) : 6 channels
  54. Channel positions : Front: L C R, Side: L R, LFE
  55. Sampling rate : 48.0 kHz
  56. Frame rate : 187.500 FPS (256 SPF)
  57. Compression mode : Lossy
  58. Delay relative to video : -5 ms
  59. Stream size : 130 MiB (10%)
  60. Title : Latino
  61. Language : Spanish
  62. Service kind : Complete Main
  63. Default : Yes
  64. Forced : No
  65.  
  66. Audio #2
  67. ID : 3
  68. Format : AC-3
  69. Format/Info : Audio Coding 3
  70. Format settings, Endianness : Big
  71. Codec ID : A_AC3
  72. Duration : 1 h 34 min
  73. Bit rate mode : Constant
  74. Bit rate : 320 kb/s
  75. Channel(s) : 6 channels
  76. Channel positions : Front: L C R, Side: L R, LFE
  77. Sampling rate : 48.0 kHz
  78. Frame rate : 31.250 FPS (1536 SPF)
  79. Bit depth : 16 bits
  80. Compression mode : Lossy
  81. Delay relative to video : -5 ms
  82. Stream size : 217 MiB (16%)
  83. Title : Ingles
  84. Language : English
  85. Service kind : Complete Main
  86. Default : No
  87. Forced : No
  88.  
  89. Text #1
  90. ID : 4
  91. Format : UTF-8
  92. Codec ID : S_TEXT/UTF8
  93. Codec ID/Info : UTF-8 Plain Text
  94. Duration : 1 h 28 min
  95. Bit rate : 0 b/s
  96. Count of elements : 26
  97. Stream size : 660 Bytes (0%)
  98. Title : Forzados
  99. Language : Spanish
  100. Default : Yes
  101. Forced : No
  102.  
  103. Text #2
  104. ID : 5
  105. Format : UTF-8
  106. Codec ID : S_TEXT/UTF8
  107. Codec ID/Info : UTF-8 Plain Text
  108. Duration : 1 h 28 min
  109. Bit rate : 70 b/s
  110. Count of elements : 1448
  111. Stream size : 45.7 KiB (0%)
  112. Title : Español
  113. Language : Spanish
  114. Default : No
  115. Forced : No
  116.  
  117. Text #3
  118. ID : 6
  119. Format : UTF-8
  120. Codec ID : S_TEXT/UTF8
  121. Codec ID/Info : UTF-8 Plain Text
  122. Duration : 1 h 30 min
  123. Bit rate : 88 b/s
  124. Count of elements : 1656
  125. Stream size : 58.4 KiB (0%)
  126. Title : Ingles
  127. Language : English
  128. Default : No
  129. Forced : No
  130.  
  131. Menu
  132. 00:05:00.000 : :Capítulo 01
  133. 00:10:00.000 : es:Capítulo 02
  134. 00:15:00.000 : :Capítulo 03
  135. 00:20:00.000 : :Capítulo 04
  136. 00:25:00.000 : :Capítulo 05
  137. 00:30:00.000 : :Capítulo 06
  138. 00:35:00.000 : :Capítulo 07
  139. 00:40:00.000 : :Capítulo 08
  140. 00:45:00.000 : :Capítulo 09
  141. 00:50:00.000 : :Capítulo 10
  142. 01:00:00.000 : :Capítulo 11
  143. 01:05:00.000 : :Capítulo 12
  144. 01:10:00.000 : :Capítulo 13
  145. 01:15:00.000 : :Capítulo 14
  146. 01:20:00.000 : :Capítulo 15
  147. 01:25:00.000 : :Capítulo 16
  148. 01:30:00.000 : :Capítulo 17
RAW Paste Data

Adblocker detected! Please consider disabling it...

We've detected AdBlock Plus or some other adblocking software preventing Pastebin.com from fully loading.

We don't have any obnoxious sound, or popup ads, we actively block these annoying types of ads!

Please add Pastebin.com to your ad blocker whitelist or disable your adblocking software.

×