Advertisement
Guest User

Untitled

a guest
Jan 12th, 2022
34
Never
Not a member of Pastebin yet? Sign Up, it unlocks many cool features!
  1. General
  2. Unique ID : 133170014856721408018130804175597054799 (0x642F9CA77D9E9C3B18BB915EAAA1AB4F)
  3. Complete name : C:\Video\Pirates.of.the.Caribbean.At.Worlds.End.2007.BDREMUX.2160p.HDR.seleZen.mkv
  4. Format : Matroska
  5. Format version : Version 4
  6. File size : 51.3 GiB
  7. Duration : 2 h 48 min
  8. Overall bit rate mode : Variable
  9. Overall bit rate : 43.6 Mb/s
  10. Movie name : Pirates of the Caribbean: At World's End 2007 from seleZen
  11. Encoded date : UTC 2022-01-12 08:15:19
  12. Writing application : mkvmerge v59.0.0 ('Shining Star') 64-bit
  13. Writing library : libebml v1.4.2 + libmatroska v1.6.4
  14.  
  15. Video
  16. ID : 1
  17. Format : HEVC
  18. Format/Info : High Efficiency Video Coding
  19. Format profile : Main 10@L5.1@High
  20. HDR format : SMPTE ST 2086, HDR10 compatible
  21. Codec ID : V_MPEGH/ISO/HEVC
  22. Duration : 2 h 48 min
  23. Bit rate : 38.0 Mb/s
  24. Width : 3 840 pixels
  25. Height : 2 160 pixels
  26. Display aspect ratio : 16:9
  27. Frame rate mode : Constant
  28. Frame rate : 23.976 (24000/1001) FPS
  29. Color space : YUV
  30. Chroma subsampling : 4:2:0 (Type 2)
  31. Bit depth : 10 bits
  32. Bits/(Pixel*Frame) : 0.191
  33. Stream size : 44.7 GiB (87%)
  34. Language : English
  35. Default : Yes
  36. Forced : No
  37. Color range : Limited
  38. Color primaries : BT.2020
  39. Transfer characteristics : PQ
  40. Matrix coefficients : BT.2020 non-constant
  41. Mastering display color pri : Display P3
  42. Mastering display luminance : min: 0.0050 cd/m2, max: 4000 cd/m2
  43.  
  44. Audio #1
  45. ID : 2
  46. Format : AC-3
  47. Format/Info : Audio Coding 3
  48. Commercial name : Dolby Digital
  49. Codec ID : A_AC3
  50. Duration : 2 h 48 min
  51. Bit rate mode : Constant
  52. Bit rate : 640 kb/s
  53. Channel(s) : 6 channels
  54. Channel layout : L R C LFE Ls Rs
  55. Sampling rate : 48.0 kHz
  56. Frame rate : 31.250 FPS (1536 SPF)
  57. Compression mode : Lossy
  58. Stream size : 771 MiB (1%)
  59. Title : Dub
  60. Language : Russian
  61. Service kind : Complete Main
  62. Default : Yes
  63. Forced : Yes
  64.  
  65. Audio #2
  66. ID : 3
  67. Format : MLP FBA 16-ch
  68. Format/Info : Meridian Lossless Packing FBA with 16-channel presentation
  69. Commercial name : Dolby TrueHD with Dolby Atmos
  70. Codec ID : A_TRUEHD
  71. Duration : 2 h 48 min
  72. Bit rate mode : Variable
  73. Bit rate : 4 190 kb/s
  74. Maximum bit rate : 5 988 kb/s
  75. Channel(s) : 8 channels
  76. Channel layout : L R C LFE Ls Rs Lb Rb
  77. Sampling rate : 48.0 kHz
  78. Frame rate : 1 200.000 FPS (40 SPF)
  79. Compression mode : Lossless
  80. Stream size : 4.93 GiB (10%)
  81. Title : Original
  82. Language : English
  83. Default : No
  84. Forced : No
  85. Number of dynamic objects : 13
  86. Bed channel count : 1 channel
  87. Bed channel configuration : LFE
  88.  
  89. Audio #3
  90. ID : 4
  91. Format : AC-3
  92. Format/Info : Audio Coding 3
  93. Commercial name : Dolby Digital
  94. Codec ID : A_AC3
  95. Duration : 2 h 48 min
  96. Bit rate mode : Constant
  97. Bit rate : 640 kb/s
  98. Channel(s) : 6 channels
  99. Channel layout : L R C LFE Ls Rs
  100. Sampling rate : 48.0 kHz
  101. Frame rate : 31.250 FPS (1536 SPF)
  102. Compression mode : Lossy
  103. Stream size : 771 MiB (1%)
  104. Language : English
  105. Service kind : Complete Main
  106. Default : No
  107. Forced : No
  108.  
  109. Text #1
  110. ID : 5
  111. Format : UTF-8
  112. Codec ID : S_TEXT/UTF8
  113. Codec ID/Info : UTF-8 Plain Text
  114. Duration : 2 h 46 min
  115. Bit rate : 63 b/s
  116. Count of elements : 1518
  117. Stream size : 77.0 KiB (0%)
  118. Language : Russian
  119. Default : No
  120. Forced : No
  121.  
  122. Text #2
  123. ID : 6
  124. Format : UTF-8
  125. Codec ID : S_TEXT/UTF8
  126. Codec ID/Info : UTF-8 Plain Text
  127. Duration : 2 h 46 min
  128. Bit rate : 39 b/s
  129. Count of elements : 1516
  130. Stream size : 48.0 KiB (0%)
  131. Language : English
  132. Default : No
  133. Forced : No
  134.  
  135. Menu
  136. 00:00:00.000 : Suspended
  137. 00:04:32.314 : A Dangerous Song
  138. 00:10:00.225 : Welcome to Singapore
  139. 00:19:56.695 : Cold
  140. 00:26:05.898 : Captain's Commands
  141. 00:32:45.755 : A Jack of All Trades
  142. 00:39:38.751 : Davy Jones' Locker
  143. 00:46:03.177 : Souls at Sea
  144. 00:51:30.379 : Rock and Roll
  145. 00:58:02.145 : The Last Pirate
  146. 01:04:49.094 : An Old Friend
  147. 01:12:45.194 : A New Captain
  148. 01:17:53.294 : Bootstrap
  149. 01:24:44.955 : Choosing a Side
  150. 01:28:39.773 : Shipwreck Island
  151. 01:33:32.565 : Brethren Court
  152. 01:38:04.087 : Reunion
  153. 01:41:51.397 : The Pirate Code
  154. 01:48:11.068 : The Exchange
  155. 01:53:11.702 : Pieces of Eight
  156. 01:59:29.621 : A Fool's Chance
  157. 02:05:50.460 : Leverage
  158. 02:09:11.494 : Time to Fly
  159. 02:13:51.774 : Community Chest
  160. 02:23:17.506 : Good Business
  161. 02:28:13.885 : Turning Away
  162. 02:34:27.467 : Egregious
  163. 02:38:46.809 : Credits
  164.  
  165.  
Advertisement
Advertisement
Advertisement
RAW Paste Data Copied
Advertisement