HYBRID_BEING

[Harunatsu] Tsurezure Children - 03 [E53B0B07].mkv

Aug 14th, 2017
102
Never
Not a member of Pastebin yet? Sign Up, it unlocks many cool features!
  1. General
  2. Unique ID : 195747426299041693801245659498812550817 (0x9343953E7AA7F283947F2323E2702EA1)
  3. Complete name : [Harunatsu] Tsurezure Children - 03 [E53B0B07].mkv
  4. Format : Matroska
  5. Format version : Version 4 / Version 2
  6. File size : 118 MiB
  7. Duration : 12mn 30s
  8. Overall bit rate : 1 323 Kbps
  9. Encoded date : UTC 2017-07-25 18:47:42
  10. Writing application : mkvmerge v7.5.0 ('Glass Culture') 32bit built on Jan 4 2015 16:37:25
  11. Writing library : libebml v1.3.1 + libmatroska v1.4.2
  12. Attachments : Arvin Light.ttf / Cronos-Pro-Bold_12435.ttf / CronosPro-Semibold.ttf / CronosPro-SemiboldIt.ttf / TransportNew-Light.ttf / Armata-Regular.ttf / ArtificeSSK.ttf
  13.  
  14. Video
  15. ID : 1
  16. Format : AVC
  17. Format/Info : Advanced Video Codec
  18. Format profile : High 10@L5
  19. Format settings, CABAC : Yes
  20. Format settings, ReFrames : 16 frames
  21. Codec ID : V_MPEG4/ISO/AVC
  22. Duration : 12mn 30s
  23. Bit rate : 1 188 Kbps
  24. Width : 1 280 pixels
  25. Height : 720 pixels
  26. Display aspect ratio : 16:9
  27. Frame rate mode : Constant
  28. Frame rate : 23.976 (24000/1001) fps
  29. Color space : YUV
  30. Chroma subsampling : 4:2:0
  31. Bit depth : 10 bits
  32. Scan type : Progressive
  33. Bits/(Pixel*Frame) : 0.054
  34. Stream size : 106 MiB (90%)
  35. Title : 720p 10bits
  36. Writing library : x264 core 148 r2744+55 950084e t_mod_Custom [10-bit@all X86]
  37. Encoding settings : cabac=1 / ref=16 / deblock=1:-1:-1 / analyse=0x3:0x133 / me=tesa / subme=11 / psy=1 / fade_compensate=0.00 / psy_rd=0.75:0.00 / mixed_ref=1 / me_range=32 / chroma_me=1 / trellis=2 / 8x8dct=1 / cqm=0 / deadzone=21,11 / fast_pskip=1 / chroma_qp_offset=-4 / threads=18 / lookahead_threads=4 / sliced_threads=0 / nr=0 / decimate=0 / interlaced=0 / bluray_compat=0 / constrained_intra=0 / fgo=0 / bframes=16 / b_pyramid=2 / b_adapt=2 / b_bias=0 / direct=3 / weightb=1 / open_gop=0 / weightp=2 / keyint=250 / keyint_min=24 / scenecut=40 / intra_refresh=0 / rc_lookahead=60 / rc=crf / mbtree=1 / crf=15.0000 / qcomp=0.75 / qpmin=0:0:0 / qpmax=81:81:81 / qpstep=4 / ip_ratio=1.40 / aq=3:0.70 / aq-sensitivity=10.00 / aq-factor=1.00:1.00:1.00 / aq2=0 / aq3=0
  38. Language : Japanese
  39. Default : Yes
  40. Forced : No
  41. Color range : Limited
  42. Matrix coefficients : BT.709
  43.  
  44. Audio
  45. ID : 2
  46. Format : AAC
  47. Format/Info : Advanced Audio Codec
  48. Format profile : LC
  49. Codec ID : A_AAC
  50. Duration : 12mn 30s
  51. Bit rate : 128 Kbps
  52. Channel(s) : 2 channels
  53. Channel positions : Front: L R
  54. Sampling rate : 44.1 KHz
  55. Frame rate : 43.066 fps (1024 spf)
  56. Compression mode : Lossy
  57. Stream size : 11.4 MiB (10%)
  58. Language : Japanese
  59. Default : Yes
  60. Forced : No
  61.  
  62. Text
  63. ID : 3
  64. Format : ASS
  65. Codec ID : S_TEXT/ASS
  66. Codec ID/Info : Advanced Sub Station Alpha
  67. Duration : 12mn 19s
  68. Bit rate : 320 bps
  69. Count of elements : 412
  70. Compression mode : Lossless
  71. Stream size : 29.0 KiB (0%)
  72. Title : Harunatsu
  73. Language : English
  74. Default : Yes
  75. Forced : No
  76.  
  77. Menu
  78. 00:00:00.010 : en:Opening
  79. 00:01:00.080 : en:Point-Blank Relationship
  80. 00:04:17.270 : en:I'll Kill Senpai
  81. 00:06:23.610 : en:Love Is Derpy
  82. 00:09:46.480 : en:Cleanup Duty
  83. 00:12:25.010 : en:Next Episode
RAW Paste Data